<?xml version="1.0" standalone="no"?>
<!DOCTYPE svg PUBLIC "-//W3C//DTD SVG 1.1//EN" "http://www.w3.org/Graphics/SVG/1.1/DTD/svg11.dtd" >
<svg xmlns="http://www.w3.org/2000/svg" xmlns:xlink="http://www.w3.org/1999/xlink" version="1.1">
<metadata>
Created by FontForge 20170731 at Thu Mar 12 04:10:53 2020
 By Aleksey,,,
Copyright (c) 2006, Linotype GmbH
</metadata>
<defs>
<font id="HelveticaNeueLT-75Bd" horiz-adv-x="593" >
  <font-face 
    font-family="HelveticaNeueLT 55 Roman"
    font-weight="700"
    font-stretch="normal"
    units-per-em="1000"
    panose-1="2 0 8 3 0 0 0 0 0 0"
    ascent="800"
    descent="-200"
    x-height="517"
    cap-height="714"
    bbox="-166 -217 1078 988"
    underline-thickness="50"
    underline-position="-150"
    unicode-range="U+0020-FB02"
  />
<missing-glyph horiz-adv-x="364" 
d="M33 0v666h265v-666h-265zM66 33h199v600h-199v-600z" />
    <glyph glyph-name=".notdef" horiz-adv-x="364" 
d="M33 0v666h265v-666h-265zM66 33h199v600h-199v-600z" />
    <glyph glyph-name=".null" horiz-adv-x="0" 
 />
    <glyph glyph-name="nonmarkingreturn" horiz-adv-x="333" 
 />
    <glyph glyph-name="space" unicode=" " horiz-adv-x="278" 
 />
    <glyph glyph-name="exclam" unicode="!" horiz-adv-x="278" 
d="M61 154h157v-154h-157v154zM213 522l-39 -308h-71l-38 308v192h148v-192z" />
    <glyph glyph-name="quotedbl" unicode="&#x22;" horiz-adv-x="463" 
d="M85 714h107v-321h-107v321zM271 714h107v-321h-107v321z" />
    <glyph glyph-name="numbersign" unicode="#" horiz-adv-x="556" 
d="M243 412l-18 -124h97l17 124h-96zM116 198h-83v90h95l18 124h-83v90h95l28 198h97l-28 -198h97l27 198h97l-27 -198h74v-90h-87l-17 -124h74v-90h-87l-27 -198h-97l27 198h-96l-28 -198h-97z" />
    <glyph glyph-name="dollar" unicode="$" horiz-adv-x="556" 
d="M141 232q-1 -56 30 -89.5t77 -42.5v209q-5 2 -13.5 4.5t-18.5 4.5q-38 10 -73.5 23.5t-64 36t-45.5 56t-17 83.5q0 51 19.5 90t51.5 65.5t74 41t87 17.5v77h59v-77q45 -5 84.5 -19.5t69.5 -40t49 -63.5t22 -90h-142q-1 40 -25 68t-58 28v-177q12 -3 24.5 -6t26.5 -7
q73 -20 113.5 -49.5t59.5 -61.5t22.5 -64t3.5 -57q0 -21 -11 -54.5t-39.5 -66.5t-76.5 -58t-123 -30v-85h-59v85q-112 8 -175 69.5t-74 179.5h142zM307 100q18 2 37.5 8.5t35 18.5t25.5 29.5t10 41.5q0 20 -6 34t-18.5 24.5t-33 19t-50.5 16.5v-192zM248 614q-17 0 -33 -5
t-29 -15.5t-20.5 -26t-7.5 -36.5q0 -33 21 -51t69 -29v163z" />
    <glyph glyph-name="percent" unicode="%" horiz-adv-x="1000" 
d="M693 182q0 -16 1 -37t7 -39.5t19 -31.5t37 -13q23 0 36.5 13t20 31.5t8 39t1.5 36.5q0 15 -1.5 35.5t-7.5 39t-18.5 32t-34.5 13.5q-24 0 -37.5 -12t-20.5 -30t-8.5 -39t-1.5 -38zM591 183q0 41 10 76t31 61t53 41t76 15q46 0 77.5 -15.5t51 -42t27.5 -62.5t8 -77
t-10 -76t-30.5 -61t-52.5 -41t-76 -15q-46 0 -77.5 15.5t-51 42t-28 62.5t-8.5 77zM668 722h85l-412 -744h-87zM177 514q0 -16 1 -36t7 -37.5t19 -29.5t37 -12q23 0 36.5 12t20 29.5t8 37t1.5 35.5q0 15 -1.5 36.5t-7.5 41.5t-18.5 34t-34.5 14q-24 0 -37.5 -13t-20.5 -32
t-8.5 -41t-1.5 -39zM75 516q0 41 10 77t31 63t53 42.5t76 15.5q46 0 77.5 -16t51 -43.5t27.5 -64.5t8 -78t-10 -75.5t-30.5 -59.5t-52.5 -39t-76 -14q-46 0 -77.5 14.5t-51 40t-28 61t-8.5 76.5z" />
    <glyph glyph-name="ampersand" unicode="&#x26;" horiz-adv-x="685" 
d="M464 71q-43 -42 -91.5 -63.5t-109.5 -21.5q-48 0 -90.5 14.5t-73.5 42t-49 67t-18 90.5q0 37 13 69t35.5 57.5t51 45.5t60.5 35q-29 35 -48.5 70t-19.5 82q0 37 15.5 67t41.5 51.5t59.5 33t69.5 11.5q40 0 76 -11t62.5 -32.5t42 -53.5t15.5 -74q0 -63 -36.5 -106
t-90.5 -72l92 -113q11 20 17 41.5t9 43.5h123q-5 -48 -22 -93t-47 -83l145 -169h-174zM267 315q-19 -8 -37 -19.5t-32 -26t-22.5 -32.5t-8.5 -40q0 -20 8.5 -37t22.5 -29.5t32.5 -20t38.5 -7.5q38 0 66.5 17.5t53.5 45.5zM382 559q0 28 -19.5 48t-45.5 20t-45 -17.5
t-19 -45.5q0 -34 18 -58t38 -49q30 19 51.5 41t21.5 61z" />
    <glyph glyph-name="quotesingle" unicode="'" horiz-adv-x="278" 
d="M86 714h107v-321h-107v321z" />
    <glyph glyph-name="parenleft" unicode="(" horiz-adv-x="296" 
d="M303 731q-56 -106 -82.5 -221t-26.5 -232q0 -119 26 -235t82 -225h-118q-62 103 -97 217.5t-35 232.5q0 56 8 117.5t24.5 122.5t41.5 118t58 105h119z" />
    <glyph glyph-name="parenright" unicode=")" horiz-adv-x="296" 
d="M-7 -182q56 106 82.5 220.5t26.5 231.5q0 119 -26 235.5t-82 225.5h118q62 -103 97 -218t35 -233q0 -56 -8.5 -117.5t-25 -122t-41 -118t-57.5 -104.5h-119z" />
    <glyph glyph-name="asterisk" unicode="*" horiz-adv-x="407" 
d="M242 589l116 44l27 -77l-118 -39l74 -98l-66 -49l-74 103l-70 -103l-67 49l74 98l-116 39l27 77l113 -44v125h80v-125z" />
    <glyph glyph-name="plus" unicode="+" horiz-adv-x="600" 
d="M354 306h199v-107h-199v-199h-107v199h-199v107h199v199h107v-199z" />
    <glyph glyph-name="comma" unicode="," horiz-adv-x="278" 
d="M61 154h157v-154q0 -35 -12.5 -63t-33.5 -49.5t-49.5 -35t-60.5 -18.5v72q16 3 29 11.5t23 21.5t15 28.5t4 32.5h-72v154z" />
    <glyph glyph-name="hyphen" unicode="-" horiz-adv-x="407" 
d="M53 334h301v-122h-301v122z" />
    <glyph glyph-name="period" unicode="." horiz-adv-x="278" 
d="M60 154h157v-154h-157v154z" />
    <glyph glyph-name="slash" unicode="/" horiz-adv-x="371" 
d="M268 731h114l-279 -748h-114z" />
    <glyph glyph-name="zero" unicode="0" horiz-adv-x="556" 
d="M163 353q0 -30 2 -72.5t12.5 -82t33.5 -67.5t66 -28t67 28t34.5 67.5t12.5 82t2 72.5q0 18 -0.5 43.5t-4 52.5t-10 53.5t-19.5 47.5t-33 34t-49 13q-28 0 -48 -13t-32.5 -34t-19.5 -47.5t-10 -53.5t-3.5 -52.5t-0.5 -43.5zM21 353q0 102 20.5 171.5t55.5 111.5t81.5 60
t98.5 18t99 -18t82.5 -60t56 -111.5t20.5 -171.5q0 -105 -20.5 -175t-56 -113t-82.5 -61t-99 -18t-98.5 18t-81.5 61t-55.5 113t-20.5 175z" />
    <glyph glyph-name="one" unicode="1" horiz-adv-x="556" 
d="M392 0h-142v454h-176v107q37 -1 71.5 5.5t62.5 23t46.5 43.5t24.5 67h113v-700z" />
    <glyph glyph-name="two" unicode="2" horiz-adv-x="556" 
d="M37 431q-2 60 14 111.5t48 90t80.5 60t111.5 21.5q48 0 91.5 -15t76.5 -43t52.5 -69t19.5 -92q0 -39 -10 -70.5t-27 -56.5t-39.5 -46t-48.5 -39t-53.5 -35.5t-54 -36.5t-51 -40.5t-43.5 -48.5h331v-122h-514q0 61 17.5 106t47.5 80.5t70.5 65.5t85.5 61q23 16 49 32.5
t47.5 36.5t36 45t14.5 57q0 50 -29.5 79t-75.5 29q-32 0 -53 -15t-34 -38t-18.5 -51.5t-5.5 -56.5h-136z" />
    <glyph glyph-name="three" unicode="3" horiz-adv-x="556" 
d="M228 417q23 -2 49 0t48.5 11.5t37 27.5t14.5 48q0 45 -30 69t-69 24q-54 0 -81.5 -35.5t-26.5 -89.5h-135q2 54 19.5 98.5t49 76.5t75.5 49.5t98 17.5q42 0 84 -12.5t75.5 -37.5t54.5 -61t21 -83q0 -50 -24.5 -89.5t-73.5 -53.5v-2q58 -13 91 -56.5t33 -102.5
q0 -55 -21.5 -98t-57.5 -72t-83 -44.5t-98 -15.5q-59 0 -107.5 17t-82.5 50t-52.5 80.5t-17.5 107.5h135q1 -29 9 -54t23 -43.5t37.5 -29.5t53.5 -11q48 0 81 30t33 80q0 40 -15.5 61t-39.5 30.5t-52.5 11t-54.5 1.5v100z" />
    <glyph glyph-name="four" unicode="4" horiz-adv-x="556" 
d="M312 522h-3l-181 -243h184v243zM312 162h-296v130l304 408h127v-421h93v-117h-93v-162h-135v162z" />
    <glyph glyph-name="five" unicode="5" horiz-adv-x="556" 
d="M500 583h-289l-28 -159l2 -2q29 29 62 41.5t75 12.5q52 0 92 -19t67.5 -51t42 -75.5t14.5 -92.5q0 -54 -21 -100.5t-56.5 -80.5t-82.5 -53t-100 -18q-51 0 -97.5 14t-82.5 42t-57.5 69.5t-22.5 96.5h142q5 -47 36.5 -76t78.5 -29q28 0 50 11t38 30t24.5 43.5t8.5 50.5
q0 27 -8 51t-24 42t-38.5 28t-50.5 10q-38 0 -62 -13.5t-45 -42.5h-128l69 387h391v-117z" />
    <glyph glyph-name="six" unicode="6" horiz-adv-x="556" 
d="M286 363q-29 0 -50 -10.5t-35 -28.5t-21 -41.5t-7 -49.5q0 -24 7.5 -47.5t22 -42t35.5 -29.5t48 -11q25 0 45 11t34 29t21 41t7 47q0 25 -6.5 48.5t-19.5 42t-33.5 30t-47.5 11.5zM388 520q-7 35 -32 61t-62 26q-39 0 -64 -22.5t-40 -55t-22 -69.5t-8 -66l2 -2
q29 42 68 60t90 18q45 0 88 -19.5t73 -52.5q28 -32 41 -73t13 -83q0 -54 -18 -100.5t-50 -81t-77 -54.5t-100 -20q-80 0 -131.5 31.5t-82.5 83t-43 116.5t-12 131q0 64 15 129.5t48 118t85 85.5t127 33q91 0 153 -50.5t74 -143.5h-135z" />
    <glyph glyph-name="seven" unicode="7" horiz-adv-x="556" 
d="M517 578q-55 -48 -97.5 -118t-71.5 -149t-44 -160t-16 -151h-152q12 156 73.5 301.5t161.5 266.5h-332v132h478v-122z" />
    <glyph glyph-name="eight" unicode="8" horiz-adv-x="556" 
d="M172 510q0 -23 8.5 -40t23.5 -28.5t34.5 -17.5t40.5 -6q44 0 74.5 23.5t30.5 68.5q0 13 -4 30t-15.5 32t-32 25t-53.5 10q-43 0 -75 -25t-32 -72zM43 523q0 47 21 83t54.5 60t75.5 36t85 12q65 0 110 -20t72.5 -48.5t39.5 -61.5t12 -58q0 -52 -26 -91t-76 -56v-2
q63 -14 97 -59.5t34 -111.5q0 -55 -22.5 -96.5t-59.5 -69t-84 -41t-96 -13.5q-51 0 -98.5 13t-85 40t-60 68t-22.5 98q0 67 35 112t97 60v2q-51 14 -77 53t-26 91zM156 212q0 -27 10 -49t26.5 -37.5t39 -24t48.5 -8.5q25 0 47 8.5t38.5 24t25.5 37.5t9 48q0 25 -9.5 45.5
t-26 35.5t-38 23t-46.5 8q-52 0 -88 -28.5t-36 -82.5z" />
    <glyph glyph-name="nine" unicode="9" horiz-adv-x="556" 
d="M270 337q28 0 49.5 10.5t35.5 28.5t21 41.5t7 49.5q0 24 -7.5 47.5t-22 42t-35.5 29.5t-48 11q-26 0 -45.5 -11t-33.5 -29t-21 -41t-7 -47q0 -25 6.5 -48.5t19.5 -42t33.5 -30t47.5 -11.5zM168 180q7 -35 32 -61t62 -26q39 0 64 22.5t40 55t21.5 69.5t8.5 66l-2 2
q-29 -42 -68 -60t-90 -18q-45 0 -88 19.5t-73 52.5q-28 32 -41 73t-13 83q0 54 17.5 100.5t50 81t77.5 54.5t100 20q79 0 131 -31.5t83 -83t43 -116.5t12 -131q0 -64 -15 -129.5t-48 -118t-85 -85.5t-127 -33q-91 0 -153 50.5t-74 143.5h135z" />
    <glyph glyph-name="colon" unicode=":" horiz-adv-x="278" 
d="M218 354h-157v154h157v-154zM61 154h157v-154h-157v154z" />
    <glyph glyph-name="semicolon" unicode=";" horiz-adv-x="278" 
d="M218 354h-157v154h157v-154zM61 154h157v-154q0 -35 -12.5 -63t-33.5 -49.5t-49.5 -35t-60.5 -18.5v72q16 3 29 11.5t23 21.5t15 28.5t4 32.5h-72v154z" />
    <glyph glyph-name="less" unicode="&#x3c;" horiz-adv-x="600" 
d="M554 399l-367 -146l367 -146v-115l-508 202v118l508 202v-115z" />
    <glyph glyph-name="equal" unicode="=" horiz-adv-x="600" 
d="M553 92h-505v107h505v-107zM553 306h-505v107h505v-107z" />
    <glyph glyph-name="greater" unicode="&#x3e;" horiz-adv-x="600" 
d="M46 107l367 146l-367 146v115l508 -202v-118l-508 -202v115z" />
    <glyph glyph-name="question" unicode="?" horiz-adv-x="556" 
d="M193 154h157v-154h-157v154zM32 484q1 54 18.5 99t49 78t76 51.5t99.5 18.5q71 0 118.5 -19.5t76.5 -48.5t41.5 -62.5t12.5 -62.5q0 -36 -7 -62.5t-19 -46t-27 -34t-31 -26.5t-32 -23.5t-29.5 -25t-23.5 -30t-13 -38.5v-38h-135v45q2 33 10.5 57t20.5 42.5t26.5 32
t29.5 25.5t28 22.5t23 23t16 27.5t6 35q0 46 -22.5 68t-62.5 22q-27 0 -46.5 -10.5t-32 -28t-18.5 -41t-6 -50.5h-147z" />
    <glyph glyph-name="at" unicode="@" horiz-adv-x="800" 
d="M559 287q-3 -10 -5.5 -21.5t-2.5 -21.5t4 -16.5t13 -6.5q21 0 42.5 13.5t38 38t27 58.5t10.5 74q0 60 -21 105.5t-57.5 77t-86 47.5t-106.5 16q-65 0 -117 -22.5t-89 -62t-57 -94t-20 -117.5q0 -66 22 -119.5t61 -92t93 -59.5t119 -21q63 0 119.5 21.5t95.5 60.5h84
q-51 -78 -131 -120t-174 -42q-80 0 -150 28.5t-122.5 78.5t-82.5 118.5t-30 148.5q0 79 30 147.5t82 118.5t121 79t147 29q68 0 131 -22t111 -61.5t77 -96t29 -125.5q0 -77 -27.5 -132t-66 -90t-78 -51.5t-63.5 -16.5q-32 0 -51.5 16t-21.5 41h-2q-18 -30 -47 -44t-61 -14
t-60.5 13.5t-50 37t-34 54.5t-12.5 66q0 47 15.5 93t44 82t68.5 58t90 22q32 0 66 -15.5t51 -54.5l16 54h82zM291 319q0 -40 21.5 -64.5t56.5 -24.5q27 0 49.5 14t39 35.5t25.5 48.5t9 53q0 37 -22.5 61t-54.5 24q-27 0 -50 -13.5t-39.5 -35t-25.5 -47.5t-9 -51z" />
    <glyph glyph-name="A" unicode="A" horiz-adv-x="685" 
d="M249 276h185l-90 262h-2zM264 714h161l267 -714h-163l-54 159h-267l-56 -159h-159z" />
    <glyph glyph-name="B" unicode="B" horiz-adv-x="704" 
d="M226 425h159q42 0 69 20t27 65q0 25 -9 41t-24 25t-34.5 12.5t-40.5 3.5h-147v-167zM69 714h336q51 0 93 -9t72 -29.5t46.5 -54.5t16.5 -84q0 -53 -25 -89.5t-72 -59.5q66 -19 98.5 -66.5t32.5 -114.5q0 -54 -21 -93.5t-56.5 -64.5t-81 -37t-93.5 -12h-346v714zM226 122
h168q23 0 44 4.5t37 15t25.5 28.5t9.5 46q0 55 -31 78.5t-82 23.5h-171v-196z" />
    <glyph glyph-name="C" unicode="C" horiz-adv-x="741" 
d="M545 474q-4 27 -18 49.5t-35 39.5t-47.5 26.5t-55.5 9.5q-53 0 -90 -20.5t-60 -55t-33.5 -78.5t-10.5 -91q0 -45 10.5 -87.5t33.5 -76.5t60 -54.5t90 -20.5q72 0 112.5 44.5t49.5 115.5h152q-6 -67 -31 -121t-66 -92t-96 -58.5t-121 -20.5q-83 0 -148 29t-110 79t-69 118
t-24 145q0 79 24 148t69 120t110 80t148 29q59 0 111.5 -17t94 -49.5t68.5 -80.5t34 -110h-152z" />
    <glyph glyph-name="D" unicode="D" horiz-adv-x="741" 
d="M226 132h140q34 0 66 11t57 36.5t40 66.5t15 100q0 54 -10.5 97.5t-34.5 74.5t-63.5 47.5t-97.5 16.5h-112v-450zM69 714h308q69 0 128.5 -22t103 -66t68 -110t24.5 -155q0 -78 -20 -144t-60.5 -114t-101 -75.5t-142.5 -27.5h-308v714z" />
    <glyph glyph-name="E" unicode="E" horiz-adv-x="648" 
d="M69 714h534v-132h-377v-153h346v-122h-346v-175h385v-132h-542v714z" />
    <glyph glyph-name="F" unicode="F" 
d="M69 714h502v-132h-345v-165h299v-122h-299v-295h-157v714z" />
    <glyph glyph-name="G" unicode="G" horiz-adv-x="759" 
d="M585 81q-42 -54 -93 -76t-103 -22q-83 0 -148 29t-110 79t-69 118t-24 145q0 79 24 148t69 120t110 80t148 29q55 0 106.5 -16.5t92.5 -48.5t68.5 -79t33.5 -108h-150q-14 60 -54.5 90t-96.5 30q-53 0 -90 -20.5t-60 -55t-33.5 -78.5t-10.5 -91q0 -45 10.5 -87.5
t33.5 -76.5t60 -54.5t90 -20.5q77 0 120 39.5t50 114.5h-158v117h300v-386h-100z" />
    <glyph glyph-name="H" unicode="H" horiz-adv-x="741" 
d="M69 714h157v-274h289v274h157v-714h-157v308h-289v-308h-157v714z" />
    <glyph glyph-name="I" unicode="I" horiz-adv-x="295" 
d="M69 714h157v-714h-157v714z" />
    <glyph glyph-name="J" unicode="J" horiz-adv-x="556" 
d="M487 225q0 -23 -3 -50t-11.5 -54t-24.5 -51.5t-42.5 -44t-65 -31t-91.5 -11.5q-45 0 -87 12.5t-75 39.5t-53 68.5t-20 100.5v62h142v-32q0 -26 4 -48t14 -37.5t27.5 -24.5t45.5 -9q31 0 48 11t24.5 28.5t9 38t1.5 39.5v482h157v-489z" />
    <glyph glyph-name="K" unicode="K" horiz-adv-x="722" 
d="M69 714h157v-296l279 296h196l-279 -282l306 -432h-197l-215 321l-90 -91v-230h-157v714z" />
    <glyph glyph-name="L" unicode="L" 
d="M69 714h157v-582h348v-132h-505v714z" />
    <glyph glyph-name="M" unicode="M" horiz-adv-x="907" 
d="M69 714h221l167 -491h2l158 491h221v-714h-147v506h-2l-175 -506h-121l-175 501h-2v-501h-147v714z" />
    <glyph glyph-name="N" unicode="N" horiz-adv-x="741" 
d="M69 714h156l298 -479h2v479h147v-714h-157l-297 478h-2v-478h-147v714z" />
    <glyph glyph-name="O" unicode="O" horiz-adv-x="778" 
d="M195 354q0 -45 10.5 -87.5t33.5 -76.5t60 -54.5t90 -20.5t90 20.5t60 54.5t33.5 76.5t10.5 87.5q0 47 -10.5 91t-33.5 78.5t-60 55t-90 20.5t-90 -20.5t-60 -55t-33.5 -78.5t-10.5 -91zM38 354q0 79 24 148t69 120t110 80t148 29t148 -29t110 -80t69 -120t24 -148
q0 -77 -24 -145t-69 -118t-110 -79t-148 -29t-148 29t-110 79t-69 118t-24 145z" />
    <glyph glyph-name="P" unicode="P" horiz-adv-x="667" 
d="M226 378h122q27 0 52 4t44 15.5t30.5 32.5t11.5 55t-11.5 55t-30.5 32.5t-44 15.5t-52 4h-122v-214zM69 714h322q67 0 114 -19.5t76.5 -51.5t43 -73.5t13.5 -84.5q0 -44 -13.5 -85t-43 -73t-76.5 -51.5t-114 -19.5h-165v-256h-157v714z" />
    <glyph glyph-name="Q" unicode="Q" horiz-adv-x="778" 
d="M458 264l81 -74q20 27 32 67.5t12 96.5q0 47 -10.5 91t-33.5 78.5t-60 55t-90 20.5t-90 -20.5t-60 -55t-33.5 -78.5t-10.5 -91q0 -45 10.5 -87.5t33.5 -76.5t60 -54.5t90 -20.5q17 0 36 1t27 9l-67 61zM663 -67l-101 92q-35 -20 -78.5 -31t-94.5 -11q-83 0 -148 29
t-110 79t-69 118t-24 145q0 79 24 148t69 120t110 80t148 29t148 -29t110 -80t69 -120t24 -148q0 -78 -24 -145t-69 -118l89 -81z" />
    <glyph glyph-name="R" unicode="R" horiz-adv-x="722" 
d="M226 391h172q53 0 80.5 24t27.5 78q0 52 -27.5 75.5t-80.5 23.5h-172v-201zM69 714h385q48 0 86.5 -15.5t66 -42.5t42 -63t14.5 -76q0 -63 -26.5 -109t-86.5 -70v-2q29 -8 48 -24.5t31 -39.5t17.5 -49.5t7.5 -53.5q1 -17 2 -40t3.5 -46.5t8 -45.5t16.5 -37h-157
q-7 17 -10.5 37.5t-6 43t-4 46t-4.5 44.5q-8 56 -34 82t-85 26h-157v-279h-157v714z" />
    <glyph glyph-name="S" unicode="S" horiz-adv-x="649" 
d="M176 237q0 -36 13 -61t34.5 -40.5t50 -23t60.5 -7.5q21 0 45 3.5t45 13.5t35 27.5t14 44.5q0 29 -18.5 47t-48.5 30.5t-68 21t-77 19.5q-40 10 -78 24.5t-68 37.5t-48.5 57t-18.5 84q0 55 23.5 95.5t61.5 67.5t86 40t96 13q56 0 107.5 -12.5t91.5 -40.5t63.5 -71.5
t23.5 -105.5h-152q-2 32 -13.5 53t-30.5 33t-44 17t-53 5q-19 0 -38 -4t-34.5 -14t-25.5 -25.5t-10 -37.5q0 -21 8 -34t31.5 -23.5t65 -22t108.5 -28.5q13 -3 34 -8.5t44.5 -15t47 -24.5t43 -37t31.5 -52.5t12 -70.5q0 -49 -19 -91t-56.5 -72.5t-93 -48t-128.5 -17.5
q-59 0 -114.5 15t-97.5 46t-67.5 79t-24.5 114h152z" />
    <glyph glyph-name="T" unicode="T" horiz-adv-x="611" 
d="M227 582h-214v132h585v-132h-214v-582h-157v582z" />
    <glyph glyph-name="U" unicode="U" horiz-adv-x="741" 
d="M675 270q0 -145 -81 -216t-224 -71q-145 0 -224.5 70.5t-79.5 216.5v444h157v-444q0 -29 5 -57t21 -50t44.5 -35t76.5 -13q84 0 116 37.5t32 117.5v444h157v-444z" />
    <glyph glyph-name="V" unicode="V" horiz-adv-x="630" 
d="M401 0h-177l-232 714h162l159 -502h2l161 502h162z" />
    <glyph glyph-name="W" unicode="W" horiz-adv-x="944" 
d="M749 0h-156l-121 486h-2l-119 -486h-159l-189 714h157l113 -486h2l124 486h147l122 -492h2l117 492h154z" />
    <glyph glyph-name="X" unicode="X" horiz-adv-x="667" 
d="M244 374l-230 340h182l140 -228l145 228h172l-229 -341l249 -373h-187l-156 247l-159 -247h-177z" />
    <glyph glyph-name="Y" unicode="Y" horiz-adv-x="667" 
d="M254 278l-263 436h177l167 -282l166 282h175l-265 -440v-274h-157v278z" />
    <glyph glyph-name="Z" unicode="Z" horiz-adv-x="648" 
d="M23 124l383 458h-353v132h562v-124l-383 -458h393v-132h-602v124z" />
    <glyph glyph-name="bracketleft" unicode="[" horiz-adv-x="333" 
d="M68 731h264v-112h-122v-689h122v-112h-264v913z" />
    <glyph glyph-name="backslash" unicode="\" horiz-adv-x="371" 
d="M382 -17h-114l-279 748h114z" />
    <glyph glyph-name="bracketright" unicode="]" horiz-adv-x="333" 
d="M265 -182h-264v112h122v689h-122v112h264v-913z" />
    <glyph glyph-name="asciicircum" unicode="^" horiz-adv-x="600" 
d="M233 700h134l172 -385h-117l-122 275l-122 -275h-117z" />
    <glyph glyph-name="underscore" unicode="_" horiz-adv-x="500" 
d="M0 -75h500v-50h-500v50z" />
    <glyph glyph-name="grave" unicode="`" horiz-adv-x="259" 
d="M-48 731h157l96 -142h-99z" />
    <glyph glyph-name="a" unicode="a" horiz-adv-x="574" 
d="M48 358q3 50 25 83t56 53t76 28.5t86 8.5q39 0 79 -5.5t73 -21.5t54 -45t21 -75v-269q0 -35 4 -67t14 -48h-144q-4 12 -6.5 24.5t-3.5 25.5q-34 -35 -80 -49.5t-94 -14.5q-37 0 -69 9.5t-56 28.5t-37.5 48t-13.5 69q0 44 15 72.5t40 45.5t56.5 25.5t64.5 13.5t63 8
t53.5 9t37.5 17.5t14 33.5q0 23 -7.5 36.5t-20 21t-29 10t-35.5 2.5q-41 0 -65.5 -18t-28.5 -60h-142zM376 253q-9 -8 -22.5 -12.5t-29 -7.5t-33 -5t-33.5 -5q-17 -3 -32 -8t-26.5 -13.5t-18.5 -22t-7 -32.5q0 -20 7 -32.5t19 -20t28 -10.5t33 -3q42 0 65 14t34 33.5
t13.5 39.5t2.5 32v53z" />
    <glyph glyph-name="b" unicode="b" horiz-adv-x="611" 
d="M433 258q0 33 -7 63t-22 53t-38 36.5t-54 13.5q-32 0 -54.5 -13.5t-37.5 -36.5t-22 -53t-7 -63q0 -32 7 -62t22 -53t37.5 -36.5t54.5 -13.5q31 0 54 13.5t38 36.5t22 53t7 62zM54 714h142v-260h2q26 40 70.5 58.5t92.5 18.5q39 0 77 -16t68.5 -49t49.5 -84.5t19 -122.5
t-19 -122.5t-49.5 -85t-68.5 -49.5t-77 -16q-57 0 -102 18.5t-68 61.5h-2v-66h-135v714z" />
    <glyph glyph-name="c" unicode="c" horiz-adv-x="574" 
d="M406 335q-14 89 -105 89q-34 0 -57 -15.5t-37.5 -40t-20.5 -54.5t-6 -58t6 -57t19.5 -52.5t36.5 -38.5t56 -15q50 0 78 28.5t35 76.5h137q-14 -103 -80 -157.5t-169 -54.5q-59 0 -107 19.5t-82 55t-53 84t-19 106.5q0 60 17.5 111.5t51.5 89t83 58.5t112 21
q46 0 88.5 -12t75.5 -36.5t54.5 -61.5t24.5 -86h-139z" />
    <glyph glyph-name="d" unicode="d" horiz-adv-x="611" 
d="M421 260q0 31 -6 61t-20.5 52.5t-38 36.5t-57.5 14q-35 0 -59 -14t-38.5 -37t-21 -52.5t-6.5 -61.5q0 -30 7 -60t22.5 -53.5t39 -38t56.5 -14.5q35 0 58.5 14t37.5 37.5t20 53.5t6 62zM423 66h-2q-25 -42 -66 -61t-91 -19q-59 0 -102.5 23t-72 61.5t-43 88.5t-14.5 104
q0 52 14.5 100.5t43 85.5t71.5 59.5t100 22.5q46 0 87.5 -19.5t65.5 -57.5h2v260h142v-714h-135v66z" />
    <glyph glyph-name="e" unicode="e" horiz-adv-x="574" 
d="M402 314q-10 54 -35.5 82t-77.5 28q-34 0 -56.5 -11.5t-36 -28.5t-19 -36t-6.5 -34h231zM171 224q3 -68 35 -99.5t92 -31.5q43 0 74 21.5t38 45.5h125q-30 -92 -92 -133t-150 -41q-61 0 -110 20t-83 56t-52.5 86t-18.5 110q0 58 19 108t54 86.5t83.5 57.5t107.5 21
q66 0 115 -25.5t80.5 -68.5t45.5 -98t10 -115h-373z" />
    <glyph glyph-name="f" unicode="f" horiz-adv-x="333" 
d="M85 422h-85v95h85v40q0 34 10.5 63t32.5 50t54 32.5t76 11.5q19 0 38 -1.5t37 -2.5v-106q-26 3 -52 3q-29 0 -41.5 -13.5t-12.5 -45.5v-31h98v-95h-98v-422h-142v422z" />
    <glyph glyph-name="g" unicode="g" horiz-adv-x="611" 
d="M295 122q30 0 53 12t38 32t22.5 45.5t7.5 53.5q0 31 -6 60t-20 51t-37.5 35t-57.5 13q-30 0 -51.5 -12t-36 -32.5t-21 -47t-6.5 -55.5q0 -28 5.5 -55.5t19 -49.5t35.5 -36t55 -14zM551 33q0 -21 -3.5 -46.5t-13.5 -51t-28 -49t-48 -42t-73 -29.5t-102 -11
q-38 0 -77.5 9.5t-72 29.5t-54 51.5t-24.5 75.5h141q10 -40 39 -55.5t67 -15.5q59 0 87 36t27 92v68h-2q-23 -41 -65.5 -60.5t-89.5 -19.5q-58 0 -100 20.5t-69 56t-39.5 83t-12.5 100.5q0 50 14.5 96.5t42.5 82t69.5 56.5t95.5 21q51 0 89.5 -19t64.5 -64h2v69h135v-484z
" />
    <glyph glyph-name="h" unicode="h" 
d="M54 714h142v-269h3q27 44 69 65t82 21q57 0 93.5 -15.5t57.5 -43t29.5 -67t8.5 -87.5v-318h-142v292q0 64 -20.5 95.5t-70.5 31.5q-58 0 -84 -34.5t-26 -113.5v-271h-142v714z" />
    <glyph glyph-name="i" unicode="i" horiz-adv-x="258" 
d="M200 597h-142v117h142v-117zM58 517h142v-517h-142v517z" />
    <glyph glyph-name="j" unicode="j" horiz-adv-x="278" 
d="M209 597h-142v117h142v-117zM-19 -61q12 -4 31 -4q22 0 38.5 8.5t16.5 37.5v536h142v-543q0 -40 -8.5 -69t-29 -48.5t-55.5 -29t-89 -9.5q-11 0 -23 1t-23 3v117z" />
    <glyph glyph-name="k" unicode="k" horiz-adv-x="574" 
d="M67 714h142v-383l179 186h168l-195 -190l217 -327h-172l-142 231l-55 -53v-178h-142v714z" />
    <glyph glyph-name="l" unicode="l" horiz-adv-x="258" 
d="M58 714h142v-714h-142v714z" />
    <glyph glyph-name="m" unicode="m" horiz-adv-x="906" 
d="M58 517h134v-70h2q28 40 67.5 62t90.5 22q49 0 89.5 -19.5t61.5 -66.5q23 34 62.5 60t93.5 26q41 0 76 -10t60 -32t39 -57.5t14 -85.5v-346h-142v293q0 26 -2 49t-11 40t-26.5 27t-47.5 10t-48.5 -11.5t-29 -30t-14 -42t-3.5 -47.5v-288h-142v290q0 22 -1 45t-8.5 42
t-25 30.5t-51.5 11.5q-11 0 -27 -4.5t-31.5 -17t-26.5 -36t-11 -61.5v-300h-142v517z" />
    <glyph glyph-name="n" unicode="n" 
d="M54 517h135v-72h3q27 44 70 65t88 21q57 0 93.5 -15.5t57.5 -43t29.5 -67t8.5 -87.5v-318h-142v292q0 64 -20.5 95.5t-70.5 31.5q-58 0 -84 -34.5t-26 -113.5v-271h-142v517z" />
    <glyph glyph-name="o" unicode="o" horiz-adv-x="611" 
d="M180 258q0 -31 6 -60.5t20.5 -53t38.5 -37.5t60 -14t60.5 14t39 37.5t20.5 53t6 60.5t-6 61t-20.5 53t-39 37.5t-60.5 14.5t-60 -14.5t-38.5 -37.5t-20.5 -53t-6 -61zM38 258q0 62 19 112.5t54 86t84 55t110 19.5t110.5 -19.5t84.5 -55t54 -86t19 -112.5t-19 -112
t-54 -85.5t-84.5 -55t-110.5 -19.5t-110 19.5t-84 55t-54 85.5t-19 112z" />
    <glyph glyph-name="p" unicode="p" horiz-adv-x="611" 
d="M315 93q35 0 58.5 14t38 36.5t20.5 52t6 61.5q0 31 -6.5 61t-21.5 53.5t-38.5 38t-57.5 14.5q-35 0 -58.5 -14.5t-38 -37.5t-20.5 -53.5t-6 -61.5q0 -32 6.5 -61.5t21 -52t38 -36.5t58.5 -14zM54 517h135v-66h2q26 42 66 61t88 19q61 0 105 -23t73 -61t43 -88.5
t14 -105.5q0 -52 -14 -100t-42.5 -85t-71 -59.5t-99.5 -22.5q-47 0 -88 20t-67 58h-2v-246h-142v699z" />
    <glyph glyph-name="q" unicode="q" horiz-adv-x="611" 
d="M174 258q0 -31 6 -60.5t20.5 -53t38 -37.5t58.5 -14q34 0 58 13.5t38.5 36t21 52t6.5 61.5q0 30 -6.5 60t-20.5 54t-37.5 39t-56.5 15q-35 0 -59 -14t-39 -37.5t-21.5 -53.5t-6.5 -61zM558 -182h-142v247h-2q-25 -42 -70.5 -60.5t-92.5 -18.5q-36 0 -74.5 14t-70.5 45.5
t-53 83t-21 126.5q0 53 14 103t43 88.5t72.5 61.5t102.5 23q48 0 90.5 -18.5t66.5 -61.5h2v66h135v-699z" />
    <glyph glyph-name="r" unicode="r" horiz-adv-x="389" 
d="M54 517h135v-96h2q10 24 27 44.5t39 35t47.5 22.5t51.5 8q16 0 31 -5v-132q-10 2 -24 3.5t-27 1.5q-39 0 -66 -13t-43.5 -35.5t-23.5 -53t-7 -64.5v-233h-142v517z" />
    <glyph glyph-name="s" unicode="s" horiz-adv-x="537" 
d="M164 168q0 -23 9.5 -39.5t24.5 -27t34.5 -15.5t40.5 -5q15 0 31.5 3.5t30 11t22.5 20t9 31.5q0 16 -11 27.5t-31.5 20.5t-50.5 16.5t-68 15.5q-31 7 -60.5 16.5t-52.5 25t-37 39t-14 57.5q0 49 19.5 81.5t51.5 51t72 26t82 7.5t81.5 -8t70.5 -27t51.5 -50.5t24.5 -79.5
h-135q-3 41 -31 55.5t-66 14.5q-12 0 -26 -1.5t-25.5 -6.5t-19.5 -14.5t-8 -25.5q0 -19 14 -31t36.5 -19.5t51.5 -13.5t59 -13q31 -7 60.5 -17t52.5 -26.5t37 -41t14 -60.5q0 -51 -20.5 -85.5t-53.5 -55.5t-75.5 -30t-86.5 -9q-45 0 -88 9t-76.5 30.5t-55 56.5t-23.5 86h135
z" />
    <glyph glyph-name="t" unicode="t" horiz-adv-x="352" 
d="M234 517h104v-95h-104v-256q0 -36 12 -48t48 -12q24 0 44 4v-111q-18 -3 -40 -4t-43 -1q-33 0 -62.5 4.5t-52 18t-35.5 37.5t-13 63v305h-86v95h86v155h142v-155z" />
    <glyph glyph-name="u" unicode="u" 
d="M539 0h-135v72h-3q-27 -44 -70 -65t-88 -21q-57 0 -93.5 15.5t-57.5 43t-29.5 67t-8.5 87.5v318h142v-292q0 -64 20.5 -95.5t70.5 -31.5q58 0 84 34.5t26 113.5v271h142v-517z" />
    <glyph glyph-name="v" unicode="v" horiz-adv-x="520" 
d="M340 0h-158l-177 517h149l109 -353h2l109 353h141z" />
    <glyph glyph-name="w" unicode="w" horiz-adv-x="814" 
d="M645 0h-146l-92 347h-2l-88 -347h-147l-164 517h150l95 -351h2l86 351h138l88 -350h2l95 350h146z" />
    <glyph glyph-name="x" unicode="x" horiz-adv-x="537" 
d="M186 272l-170 245h162l91 -135l90 135h157l-170 -242l191 -275h-162l-108 163l-108 -163h-159z" />
    <glyph glyph-name="y" unicode="y" horiz-adv-x="519" 
d="M309 -65q-23 -62 -64 -89.5t-114 -27.5q-22 0 -43.5 1.5t-43.5 3.5v117q20 -2 41 -4t42 -1q18 2 30.5 11.5t18.5 23.5t6 30q0 17 -6 32l-182 485h152l117 -354h2l113 354h147z" />
    <glyph glyph-name="z" unicode="z" horiz-adv-x="519" 
d="M22 107l269 303h-249v107h436v-107l-269 -303h288v-107h-475v107z" />
    <glyph glyph-name="braceleft" unicode="{" horiz-adv-x="333" 
d="M333 619h-54q-18 0 -28.5 -7t-16.5 -17.5t-7.5 -23.5t-1.5 -25v-152q0 -37 -11.5 -59.5t-27 -35t-32.5 -17.5t-28 -6v-3q11 -1 28 -6.5t32.5 -18t27 -33.5t11.5 -52v-160q0 -12 1.5 -25t7.5 -23.5t16.5 -17.5t28.5 -7h54v-112h-127q-17 0 -38.5 8.5t-40 25t-31.5 42
t-13 59.5v195q0 23 -10 39t-24 25.5t-30 14t-28 4.5v87q12 0 28 4.5t30 15t24 28t10 42.5v188q0 34 13 59.5t31.5 42t40 25t38.5 8.5h127v-112z" />
    <glyph glyph-name="bar" unicode="|" horiz-adv-x="223" 
d="M58 786h107v-1000h-107v1000z" />
    <glyph glyph-name="braceright" unicode="}" horiz-adv-x="333" 
d="M0 -70h54q18 0 28.5 7t16.5 17.5t7.5 23.5t1.5 25v160q0 31 11 52t27 33.5t33 18t28 6.5v3q-11 1 -28 6t-33 17.5t-27 35t-11 59.5v152q0 12 -1.5 25t-7.5 23.5t-16.5 17.5t-28.5 7h-54v112h127q17 0 38.5 -8.5t40 -25t31.5 -42t13 -59.5v-188q0 -25 10 -42.5t24 -28
t30 -15t28 -4.5v-87q-12 0 -28 -4.5t-30 -14t-24 -25.5t-10 -39v-195q0 -34 -13 -59.5t-31.5 -42t-40 -25t-38.5 -8.5h-127v112z" />
    <glyph glyph-name="asciitilde" unicode="~" horiz-adv-x="600" 
d="M533 251q-11 -16 -23.5 -31.5t-27 -27.5t-33 -19.5t-41.5 -7.5q-28 0 -52.5 9.5t-49.5 23.5q-24 14 -52 24.5t-63 10.5q-17 0 -29.5 -6.5t-23 -16.5t-18 -23t-13.5 -26l-40 93q8 16 19.5 31.5t26.5 27.5t34.5 19.5t44.5 7.5q26 0 54 -9.5t57 -22.5q28 -12 55 -24t47 -12
q15 0 27.5 6.5t23 16.5t19.5 23l18 26z" />
    <glyph glyph-name="uni00A0" unicode="&#xa0;" horiz-adv-x="278" 
 />
    <glyph glyph-name="exclamdown" unicode="&#xa1;" horiz-adv-x="278" 
d="M65 9l39 308h71l38 -308v-192h-148v192zM218 377h-157v154h157v-154z" />
    <glyph glyph-name="cent" unicode="&#xa2;" horiz-adv-x="556" 
d="M260 -14q-54 3 -98 25t-75.5 57t-48.5 82t-17 100q0 57 15.5 106t46 86.5t75 60.5t102.5 28v85h59v-85q41 0 80.5 -14t71 -39.5t51 -62t21.5 -81.5h-139q-3 36 -27 61.5t-58 28.5v-331q18 3 34 13.5t27.5 25.5t18.5 33.5t7 37.5h139q-4 -48 -22.5 -86.5t-48.5 -66
t-69.5 -44t-85.5 -20.5v-101h-59v101zM260 423q-27 -7 -45.5 -23t-30 -37.5t-16.5 -47t-5 -51.5q0 -27 4.5 -53.5t16 -50t30 -41t46.5 -26.5v330z" />
    <glyph glyph-name="sterling" unicode="&#xa3;" horiz-adv-x="556" 
d="M26 76q21 13 41.5 30.5t36 38.5t25.5 45.5t10 51.5q0 17 -5.5 33.5t-13.5 33.5h-99v85h64q-15 19 -30 56t-15 82q0 40 16.5 76t48.5 63.5t80 43.5t111 16q57 0 102 -16.5t76.5 -48t48 -78t16.5 -107.5h-135q-1 15 -4 37.5t-13.5 43.5t-32 36.5t-59.5 15.5q-44 0 -71 -25
t-27 -67q0 -12 1 -23t4.5 -25.5t12 -33.5t23.5 -46h133v-85h-105q5 -15 6.5 -30t1.5 -32q0 -47 -24.5 -80.5t-57.5 -59.5l2 -2q24 15 39 19t29 4q20 0 39.5 -3.5t39.5 -7.5q20 -5 39 -8.5t39 -3.5t40.5 7t47.5 36l60 -101q-36 -35 -77 -49.5t-79 -14.5t-63 5t-46 13
q-22 8 -44 14t-55 6q-27 0 -56.5 -7.5t-58.5 -30.5z" />
    <glyph glyph-name="currency" unicode="&#xa4;" horiz-adv-x="556" 
d="M280 491q-32 0 -55.5 -12t-39.5 -31.5t-24 -45t-8 -53.5q0 -27 8 -52.5t24 -45t39.5 -31t54.5 -11.5t54 12t38 32t22.5 45.5t7.5 52.5q0 26 -7.5 51.5t-22.5 45t-38 31.5t-53 12zM77 207q-23 27 -35.5 63.5t-12.5 78.5t11.5 80.5t36.5 63.5l-57 58l57 57l57 -56
q25 21 64.5 33.5t81.5 12.5q40 0 77 -12.5t60 -32.5l58 57l61 -61l-56 -55q22 -24 33.5 -62.5t11.5 -80.5t-11.5 -80t-34.5 -66l55 -56l-55 -55l-57 58q-25 -24 -63 -37t-80 -13q-44 0 -82.5 12.5t-64.5 36.5l-56 -58l-56 56z" />
    <glyph glyph-name="yen" unicode="&#xa5;" horiz-adv-x="556" 
d="M207 0v138h-157v95h157v46l-14 29h-143v95h95l-154 311h163l132 -311l129 311h162l-155 -311h95v-95h-143l-15 -29v-46h158v-95h-158v-138h-152z" />
    <glyph glyph-name="brokenbar" unicode="&#xa6;" horiz-adv-x="223" 
d="M165 411h-107v250h107v-250zM58 161h107v-250h-107v250z" />
    <glyph glyph-name="section" unicode="&#xa7;" horiz-adv-x="556" 
d="M370 538q0 37 -22.5 61.5t-62.5 24.5q-27 0 -51.5 -17t-24.5 -47q0 -21 15 -37.5t39 -31.5t54.5 -28.5t61.5 -28.5t61.5 -32.5t53.5 -39t37.5 -49t14.5 -63.5q0 -50 -28.5 -89.5t-75.5 -56.5q29 -22 42 -52t13 -66q0 -42 -19 -73.5t-49.5 -52.5t-68.5 -31.5t-76 -10.5
q-48 0 -89 11t-71.5 35t-47.5 60.5t-17 87.5h124q2 -44 27.5 -65.5t70.5 -21.5q31 0 52.5 16.5t21.5 49.5q0 22 -14 39.5t-38 32.5t-54.5 29t-63.5 29t-64 33t-56 40.5t-40 51t-15 65.5q0 54 28 91t79 55q-21 23 -32 46t-11 55q0 42 18.5 74.5t48 54.5t67 33t75.5 11
q44 0 82.5 -12.5t67 -37.5t45 -61t16.5 -82h-124zM212 380q-6 3 -12.5 7t-14.5 3q-11 -1 -20.5 -7.5t-16 -16t-10.5 -21t-4 -22.5q0 -14 7.5 -27t24.5 -22l180 -98q5 -2 13 -4.5t17 -2.5q10 0 18.5 5.5t14.5 13.5t9.5 18t3.5 18q0 23 -13.5 38t-31.5 25z" />
    <glyph glyph-name="dieresis" unicode="&#xa8;" horiz-adv-x="259" 
d="M-41 715h135v-117h-135v117zM165 715h135v-117h-135v117z" />
    <glyph glyph-name="copyright" unicode="&#xa9;" horiz-adv-x="800" 
d="M596 295q-6 -38 -22.5 -67t-41 -49.5t-55 -31t-63.5 -10.5q-49 0 -88.5 17t-67.5 47t-43.5 70.5t-15.5 87.5q0 48 14.5 89t42 71t67 47t89.5 17q34 0 65 -10t55 -29.5t40 -48.5t21 -67h-78q-8 35 -36 55t-67 20q-57 0 -87 -40t-30 -102q0 -29 8.5 -55.5t24 -46t37.5 -31
t49 -11.5q42 0 69 21t32 57h81zM118 357q0 -64 22 -118t60 -93t89.5 -61t110.5 -22q58 0 109.5 22t89.5 61t60.5 93t22.5 118t-22.5 118t-60.5 93t-89.5 61t-109.5 22q-59 0 -110.5 -22t-89.5 -61t-60 -93t-22 -118zM16 357q0 85 31.5 154.5t84.5 118t122.5 75t145.5 26.5
t145.5 -26.5t122.5 -75t84.5 -118t31.5 -154.5t-31.5 -154t-84.5 -118t-122.5 -75.5t-145.5 -26.5t-145.5 26.5t-122.5 75.5t-84.5 118t-31.5 154z" />
    <glyph glyph-name="ordfeminine" unicode="&#xaa;" horiz-adv-x="344" 
d="M20 605q5 33 19.5 54t35.5 33t47 17t54 5q26 0 53 -3.5t48.5 -13t35 -27t13.5 -45.5v-166q0 -25 3 -44.5t9 -30.5h-101q-5 15 -7 31q-22 -23 -51.5 -31.5t-56.5 -8.5q-47 0 -79.5 23.5t-32.5 76.5q0 27 10 45t26 28.5t36.5 15.5t41.5 8q22 3 42 4.5t34 5t22.5 10
t8.5 18.5q0 26 -17.5 32.5t-42.5 6.5q-17 0 -32 -10.5t-17 -33.5h-102zM230 535q-11 -10 -31.5 -12.5t-35.5 -5.5q-21 -5 -36 -13t-15 -27q0 -22 15.5 -29.5t29.5 -7.5q25 0 39.5 7.5t22 18.5t9.5 24t2 25v20z" />
    <glyph glyph-name="guillemotleft" unicode="&#xab;" horiz-adv-x="444" 
d="M42 205v135l157 123v-120l-90 -71l90 -72v-120zM245 205v135l157 123v-120l-90 -71l90 -72v-120z" />
    <glyph glyph-name="logicalnot" unicode="&#xac;" horiz-adv-x="600" 
d="M552 99h-107v200h-397v107h504v-307z" />
    <glyph glyph-name="uni00AD" unicode="&#xad;" horiz-adv-x="407" 
d="M53 334h301v-122h-301v122z" />
    <glyph glyph-name="registered" unicode="&#xae;" horiz-adv-x="800" 
d="M334 393h74q18 0 33 2t26 8t17 17.5t6 30.5q0 17 -8 27t-20.5 15.5t-28 7.5t-29.5 2h-70v-110zM251 568h158q79 0 121.5 -28t42.5 -96q0 -29 -8.5 -49.5t-23.5 -33.5t-35 -20t-43 -9l112 -183h-87l-102 179h-52v-179h-83v419zM118 358q0 -64 22 -118t60 -93.5t89.5 -61.5
t110.5 -22q58 0 109.5 22t89.5 61.5t60.5 93.5t22.5 118t-22.5 117.5t-60.5 92.5t-89.5 61t-109.5 22q-59 0 -110.5 -22t-89.5 -61t-60 -92.5t-22 -117.5zM16 358q0 85 31.5 154t84.5 117.5t122.5 75t145.5 26.5t145.5 -26.5t122.5 -75t84.5 -117.5t31.5 -154
q0 -86 -31.5 -155t-84.5 -118t-122.5 -75.5t-145.5 -26.5t-145.5 26.5t-122.5 75.5t-84.5 118t-31.5 155z" />
    <glyph glyph-name="macron" unicode="&#xaf;" horiz-adv-x="259" 
d="M-57 694h373v-75h-373v75z" />
    <glyph glyph-name="degree" unicode="&#xb0;" horiz-adv-x="400" 
d="M117 566q0 -18 7 -34t18.5 -28t26.5 -19t31 -7t31 7t26.5 19t18.5 28t7 34t-7 34t-18.5 28t-26.5 19t-31 7t-31 -7t-26.5 -19t-18.5 -28t-7 -34zM52 566q0 31 11.5 58t31.5 47t47 31.5t58 11.5t58 -11.5t47 -31.5t31.5 -47t11.5 -58t-11.5 -58t-31.5 -47t-47 -31.5
t-58 -11.5t-58 11.5t-47 31.5t-31.5 47t-11.5 58z" />
    <glyph glyph-name="plusminus" unicode="&#xb1;" horiz-adv-x="600" 
d="M48 107h505v-107h-505v107zM354 375h199v-107h-199v-131h-107v131h-199v107h199v131h107v-131z" />
    <glyph glyph-name="uni00B2" unicode="&#xb2;" horiz-adv-x="392" 
d="M28 540q-1 77 44 125.5t137 48.5q31 0 59.5 -8.5t50 -25.5t34 -42.5t12.5 -58.5q0 -47 -23.5 -76.5t-57.5 -51.5t-70 -42.5t-62 -55.5h209v-80h-334q0 40 11 68.5t30 51t44.5 40.5t54.5 36q15 10 31.5 20t31 22t24 26.5t9.5 34.5q0 26 -16.5 44t-44.5 18q-21 0 -35 -9
t-22.5 -23t-12 -30.5t-2.5 -31.5h-102z" />
    <glyph glyph-name="uni00B3" unicode="&#xb3;" horiz-adv-x="392" 
d="M164 534q14 0 30.5 0.5t31 5t24 14t9.5 27.5q0 25 -19 39t-43 14q-32 0 -50 -21t-17 -51h-96q2 70 44.5 111t117.5 41q30 0 58.5 -7.5t51 -23t36 -38.5t13.5 -54q0 -30 -16.5 -54t-49.5 -32v-2q38 -7 59.5 -33t21.5 -61q0 -36 -14 -63t-37.5 -45.5t-55 -27.5t-66.5 -9
q-81 0 -129 41t-46 119h96q2 -32 20.5 -56t56.5 -24q30 0 51.5 17.5t21.5 45.5q0 21 -10 33t-25.5 17t-34 6t-34.5 1v70z" />
    <glyph glyph-name="acute" unicode="&#xb4;" horiz-adv-x="259" 
d="M153 589h-99l96 142h157z" />
    <glyph glyph-name="mu" unicode="&#xb5;" 
d="M539 0h-135v72h-3q-14 -22 -31.5 -38t-35.5 -26.5t-34.5 -16t-28.5 -5.5q-30 0 -48 7t-27 17v-192h-142v699h142v-292q0 -64 20.5 -95.5t70.5 -31.5q58 0 84 34.5t26 113.5v271h142v-517z" />
    <glyph glyph-name="paragraph" unicode="&#xb6;" horiz-adv-x="620" 
d="M221 357q-105 0 -162 47.5t-57 127.5q0 52 18 87t50 56t76 30t96 9h293v-880h-102v800h-110v-800h-102v523z" />
    <glyph glyph-name="periodcentered" unicode="&#xb7;" horiz-adv-x="278" 
d="M55 287q0 18 7 33.5t18.5 27t27 18t32.5 6.5q34 0 59 -25t25 -60q0 -16 -7 -31t-18 -27t-26.5 -19t-31.5 -7q-18 0 -33.5 6.5t-27 18t-18.5 27t-7 32.5z" />
    <glyph glyph-name="cedilla" unicode="&#xb8;" horiz-adv-x="259" 
d="M33 -147q16 -7 37 -12.5t47 -5.5q18 0 29 8t11 26q0 19 -11.5 25.5t-28.5 6.5q-21 0 -40 -7l-21 24l59 82h49l-39 -52l1 -2q18 7 35 7t33.5 -4t29.5 -12.5t21 -22t8 -31.5q0 -29 -10 -48.5t-27 -31t-37.5 -16t-42.5 -4.5q-24 0 -41 1.5t-30.5 4.5t-26 7t-26.5 9z" />
    <glyph glyph-name="uni00B9" unicode="&#xb9;" horiz-adv-x="392" 
d="M289 273h-102v274h-110v75q48 -2 84.5 16.5t43.5 66.5h84v-432z" />
    <glyph glyph-name="ordmasculine" unicode="&#xba;" horiz-adv-x="367" 
d="M119 544q0 -17 3.5 -33.5t11.5 -30t20 -22t29 -8.5t29.5 8.5t20.5 22t11.5 30t3.5 33.5t-3.5 34t-11.5 30.5t-20.5 22t-29.5 8.5t-29 -8.5t-20 -22t-11.5 -30.5t-3.5 -34zM12 544q0 79 46.5 124.5t124.5 45.5t125 -45.5t47 -124.5t-47 -124t-125 -45t-124.5 45t-46.5 124
z" />
    <glyph glyph-name="guillemotright" unicode="&#xbb;" horiz-adv-x="444" 
d="M199 340v-135l-157 -125v120l90 72l-90 71v120zM402 340v-135l-157 -125v120l90 72l-90 71v120z" />
    <glyph glyph-name="onequarter" unicode="&#xbc;" horiz-adv-x="892" 
d="M689 313h-2l-114 -144h116v144zM689 89h-192v93l188 238h100v-251h57v-80h-57v-89h-96v89zM236 273h-102v274h-110v75q48 -2 84.5 16.5t43.5 66.5h84v-432zM566 722h85l-412 -744h-87z" />
    <glyph glyph-name="onehalf" unicode="&#xbd;" horiz-adv-x="889" 
d="M509 267q-1 77 44 125.5t137 48.5q31 0 59.5 -8.5t50 -25.5t34 -42.5t12.5 -58.5q0 -47 -23.5 -76.5t-57.5 -51.5t-70 -42.5t-62 -55.5h209v-80h-334q0 40 11 68.5t30 51t44.5 40.5t54.5 36q15 10 31.5 20t31 22t24 26.5t9.5 34.5q0 26 -16.5 44t-44.5 18q-21 0 -35 -9
t-22.5 -23t-12 -30.5t-2.5 -31.5h-102zM236 273h-102v274h-110v75q48 -2 84.5 16.5t43.5 66.5h84v-432zM566 722h85l-412 -744h-87z" />
    <glyph glyph-name="threequarters" unicode="&#xbe;" horiz-adv-x="889" 
d="M709 313h-2l-114 -144h116v144zM709 89h-192v93l188 238h100v-251h57v-80h-57v-89h-96v89zM181 534q14 0 30.5 0.5t31 5t24 14t9.5 27.5q0 25 -19 39t-43 14q-32 0 -50 -21t-17 -51h-96q2 70 44.5 111t117.5 41q30 0 58.5 -7.5t51 -23t36 -38.5t13.5 -54q0 -30 -16.5 -54
t-49.5 -32v-2q38 -7 59.5 -33t21.5 -61q0 -36 -14 -63t-37.5 -45.5t-55 -27.5t-66.5 -9q-81 0 -129 41t-46 119h96q2 -32 20.5 -56t56.5 -24q30 0 51.5 17.5t21.5 45.5q0 21 -10 33t-25.5 17t-34 6t-34.5 1v70zM653 722h85l-412 -744h-87z" />
    <glyph glyph-name="questiondown" unicode="&#xbf;" horiz-adv-x="556" 
d="M363 377h-157v154h157v-154zM522 51q-1 -54 -18.5 -99t-49 -78t-75.5 -51.5t-98 -18.5q-71 0 -118.5 19.5t-76.5 48.5t-41.5 62.5t-12.5 62.5q0 36 7 62.5t19 46t27 34t31 26.5t32 23.5t29.5 25t23.5 30t13 38.5v38h135v-45q-2 -33 -10.5 -57t-20.5 -42.5t-26.5 -32
t-29.5 -25.5t-28 -22.5t-23 -23t-16 -27.5t-6 -35q0 -46 22.5 -68t62.5 -22q26 0 45 10.5t31.5 28t18.5 41t6 50.5h147z" />
    <glyph glyph-name="Agrave" unicode="&#xc0;" horiz-adv-x="685" 
d="M160 921h157l96 -142h-99zM249 276h185l-90 262h-2zM264 714h161l267 -714h-163l-54 159h-267l-56 -159h-159z" />
    <glyph glyph-name="Aacute" unicode="&#xc1;" horiz-adv-x="685" 
d="M372 779h-99l96 142h157zM249 276h185l-90 262h-2zM264 714h161l267 -714h-163l-54 159h-267l-56 -159h-159z" />
    <glyph glyph-name="Acircumflex" unicode="&#xc2;" horiz-adv-x="685" 
d="M282 921h130l110 -142h-117l-62 81l-64 -81h-108zM249 276h185l-90 262h-2zM264 714h161l267 -714h-163l-54 159h-267l-56 -159h-159z" />
    <glyph glyph-name="Atilde" unicode="&#xc3;" horiz-adv-x="685" 
d="M528 911q-4 -23 -11 -41.5t-19 -34.5t-31.5 -27t-50.5 -11q-19 0 -34.5 3t-46.5 14q-25 8 -39 12.5t-29 4.5q-19 0 -29.5 -11.5t-15.5 -30.5h-61q4 23 12 44t22.5 38.5t36.5 28.5t46 11q15 0 30 -3.5t42 -14.5q17 -6 33.5 -11.5t31.5 -5.5q18 0 28 7.5t16 27.5h69z
M249 276h185l-90 262h-2zM264 714h161l267 -714h-163l-54 159h-267l-56 -159h-159z" />
    <glyph glyph-name="Adieresis" unicode="&#xc4;" horiz-adv-x="685" 
d="M175 905h135v-117h-135v117zM381 905h135v-117h-135v117zM249 276h185l-90 262h-2zM264 714h161l267 -714h-163l-54 159h-267l-56 -159h-159z" />
    <glyph glyph-name="Aring" unicode="&#xc5;" horiz-adv-x="685" 
d="M222 866q0 25 9.5 47.5t26 39t39 26t47.5 9.5t47.5 -9.5t39.5 -26t26.5 -39t9.5 -47.5t-9.5 -47.5t-26.5 -39t-39.5 -25.5t-47.5 -9t-47.5 9t-39 25.5t-26 39t-9.5 47.5zM281 866q0 -29 17 -48.5t46 -19.5t46.5 19.5t17.5 48.5t-17.5 48.5t-46.5 19.5t-46 -19.5
t-17 -48.5zM249 276h185l-90 262h-2zM264 714h161l267 -714h-163l-54 159h-267l-56 -159h-159z" />
    <glyph glyph-name="AE" unicode="&#xc6;" horiz-adv-x="981" 
d="M330 714h606v-132h-332v-153h312v-122h-312v-175h340v-132h-492v159h-224l-72 -159h-167zM280 276h172v306h-34z" />
    <glyph glyph-name="Ccedilla" unicode="&#xc7;" horiz-adv-x="741" 
d="M272 -147q16 -7 37 -12.5t47 -5.5q18 0 29 8t11 26q0 19 -11.5 25.5t-28.5 6.5q-21 0 -40 -7l-21 24l48 67q-56 6 -102 27q-65 29 -110 79t-69 118t-24 145q0 79 24 148t69 120t110 80t148 29q59 0 111.5 -17t94 -49.5t68.5 -80.5t34 -110h-152q-4 27 -18 49.5t-35 39.5
t-47.5 26.5t-55.5 9.5q-53 0 -90 -20.5t-60 -55t-33.5 -78.5t-10.5 -91q0 -45 10.5 -87.5t33.5 -76.5t60 -54.5t90 -20.5q72 0 112.5 44.5t49.5 115.5h152q-6 -67 -31 -121t-66 -92t-96 -58.5t-120 -20.5l-26 -35l1 -2q18 7 35 7t33.5 -4t29.5 -12.5t21 -22t8 -31.5
q0 -29 -10 -48.5t-27 -31t-37.5 -16t-42.5 -4.5q-24 0 -41 1.5t-30.5 4.5t-26 7t-26.5 9z" />
    <glyph glyph-name="Egrave" unicode="&#xc8;" horiz-adv-x="648" 
d="M163 921h157l96 -142h-99zM69 714h534v-132h-377v-153h346v-122h-346v-175h385v-132h-542v714z" />
    <glyph glyph-name="Eacute" unicode="&#xc9;" horiz-adv-x="648" 
d="M378 779h-99l96 142h157zM69 714h534v-132h-377v-153h346v-122h-346v-175h385v-132h-542v714z" />
    <glyph glyph-name="Ecircumflex" unicode="&#xca;" horiz-adv-x="648" 
d="M268 921h130l110 -142h-117l-62 81l-64 -81h-108zM69 714h534v-132h-377v-153h346v-122h-346v-175h385v-132h-542v714z" />
    <glyph glyph-name="Edieresis" unicode="&#xcb;" horiz-adv-x="648" 
d="M169 905h135v-117h-135v117zM375 905h135v-117h-135v117zM69 714h534v-132h-377v-153h346v-122h-346v-175h385v-132h-542v714z" />
    <glyph glyph-name="Igrave" unicode="&#xcc;" horiz-adv-x="295" 
d="M-27 921h157l96 -142h-99zM69 714h157v-714h-157v714z" />
    <glyph glyph-name="Iacute" unicode="&#xcd;" horiz-adv-x="295" 
d="M167 779h-99l96 142h157zM69 714h157v-714h-157v714z" />
    <glyph glyph-name="Icircumflex" unicode="&#xce;" horiz-adv-x="295" 
d="M83 921h130l110 -142h-117l-62 81l-64 -81h-108zM69 714h157v-714h-157v714z" />
    <glyph glyph-name="Idieresis" unicode="&#xcf;" horiz-adv-x="295" 
d="M-24 905h135v-117h-135v117zM182 905h135v-117h-135v117zM69 714h157v-714h-157v714z" />
    <glyph glyph-name="Eth" unicode="&#xd0;" horiz-adv-x="741" 
d="M226 427h160v-117h-160v-178h140q34 0 66 11t57 36.5t40 66.5t15 100q0 54 -10.5 97.5t-34.5 74.5t-63.5 47.5t-97.5 16.5h-112v-155zM69 311h-66v116h66v287h308q69 0 128.5 -22t103 -66t68 -110t24.5 -155q0 -78 -20 -144t-60.5 -114t-101 -75.5t-142.5 -27.5h-308v311
z" />
    <glyph glyph-name="Ntilde" unicode="&#xd1;" horiz-adv-x="741" 
d="M558 911q-4 -23 -11 -41.5t-19 -34.5t-31.5 -27t-50.5 -11q-19 0 -34.5 3t-46.5 14q-25 8 -39 12.5t-29 4.5q-19 0 -29.5 -11.5t-15.5 -30.5h-61q4 23 12 44t22.5 38.5t36.5 28.5t46 11q15 0 30 -3.5t42 -14.5q17 -6 33.5 -11.5t31.5 -5.5q18 0 28 7.5t16 27.5h69z
M69 714h156l298 -479h2v479h147v-714h-157l-297 478h-2v-478h-147v714z" />
    <glyph glyph-name="Ograve" unicode="&#xd2;" horiz-adv-x="778" 
d="M199 921h157l96 -142h-99zM195 354q0 -45 10.5 -87.5t33.5 -76.5t60 -54.5t90 -20.5t90 20.5t60 54.5t33.5 76.5t10.5 87.5q0 47 -10.5 91t-33.5 78.5t-60 55t-90 20.5t-90 -20.5t-60 -55t-33.5 -78.5t-10.5 -91zM38 354q0 79 24 148t69 120t110 80t148 29t148 -29
t110 -80t69 -120t24 -148q0 -77 -24 -145t-69 -118t-110 -79t-148 -29t-148 29t-110 79t-69 118t-24 145z" />
    <glyph glyph-name="Oacute" unicode="&#xd3;" horiz-adv-x="778" 
d="M434 779h-99l96 142h157zM195 354q0 -45 10.5 -87.5t33.5 -76.5t60 -54.5t90 -20.5t90 20.5t60 54.5t33.5 76.5t10.5 87.5q0 47 -10.5 91t-33.5 78.5t-60 55t-90 20.5t-90 -20.5t-60 -55t-33.5 -78.5t-10.5 -91zM38 354q0 79 24 148t69 120t110 80t148 29t148 -29
t110 -80t69 -120t24 -148q0 -77 -24 -145t-69 -118t-110 -79t-148 -29t-148 29t-110 79t-69 118t-24 145z" />
    <glyph glyph-name="Ocircumflex" unicode="&#xd4;" horiz-adv-x="778" 
d="M331 921h130l110 -142h-117l-62 81l-64 -81h-108zM195 354q0 -45 10.5 -87.5t33.5 -76.5t60 -54.5t90 -20.5t90 20.5t60 54.5t33.5 76.5t10.5 87.5q0 47 -10.5 91t-33.5 78.5t-60 55t-90 20.5t-90 -20.5t-60 -55t-33.5 -78.5t-10.5 -91zM38 354q0 79 24 148t69 120
t110 80t148 29t148 -29t110 -80t69 -120t24 -148q0 -77 -24 -145t-69 -118t-110 -79t-148 -29t-148 29t-110 79t-69 118t-24 145z" />
    <glyph glyph-name="Otilde" unicode="&#xd5;" horiz-adv-x="778" 
d="M573 911q-4 -23 -11 -41.5t-19 -34.5t-31.5 -27t-50.5 -11q-19 0 -34.5 3t-46.5 14q-25 8 -39 12.5t-29 4.5q-19 0 -29.5 -11.5t-15.5 -30.5h-61q4 23 12 44t22.5 38.5t36.5 28.5t46 11q15 0 30 -3.5t42 -14.5q17 -6 33.5 -11.5t31.5 -5.5q18 0 28 7.5t16 27.5h69z
M195 354q0 -45 10.5 -87.5t33.5 -76.5t60 -54.5t90 -20.5t90 20.5t60 54.5t33.5 76.5t10.5 87.5q0 47 -10.5 91t-33.5 78.5t-60 55t-90 20.5t-90 -20.5t-60 -55t-33.5 -78.5t-10.5 -91zM38 354q0 79 24 148t69 120t110 80t148 29t148 -29t110 -80t69 -120t24 -148
q0 -77 -24 -145t-69 -118t-110 -79t-148 -29t-148 29t-110 79t-69 118t-24 145z" />
    <glyph glyph-name="Odieresis" unicode="&#xd6;" horiz-adv-x="778" 
d="M216 905h135v-117h-135v117zM422 905h135v-117h-135v117zM195 354q0 -45 10.5 -87.5t33.5 -76.5t60 -54.5t90 -20.5t90 20.5t60 54.5t33.5 76.5t10.5 87.5q0 47 -10.5 91t-33.5 78.5t-60 55t-90 20.5t-90 -20.5t-60 -55t-33.5 -78.5t-10.5 -91zM38 354q0 79 24 148
t69 120t110 80t148 29t148 -29t110 -80t69 -120t24 -148q0 -77 -24 -145t-69 -118t-110 -79t-148 -29t-148 29t-110 79t-69 118t-24 145z" />
    <glyph glyph-name="multiply" unicode="&#xd7;" horiz-adv-x="600" 
d="M64 93l161 160l-159 160l76 76l159 -160l160 160l76 -76l-161 -160l161 -160l-76 -76l-160 161l-161 -161z" />
    <glyph glyph-name="Oslash" unicode="&#xd8;" horiz-adv-x="778" 
d="M261 164q23 -23 54.5 -36t73.5 -13q53 0 90 20.5t60 54.5t33.5 76.5t10.5 87.5q0 36 -6.5 70.5t-20.5 65.5zM519 548q-23 23 -55 37t-75 14q-53 0 -90 -20.5t-60 -55t-33.5 -78.5t-10.5 -91q0 -35 6.5 -69.5t21.5 -65.5zM120 105q-41 50 -61.5 113.5t-20.5 135.5
q0 79 24 148t69 120t110 80t148 29q69 0 125.5 -20t99.5 -57l80 89l50 -44l-84 -93q39 -50 59.5 -114t20.5 -138q0 -77 -24 -145t-69 -118t-110 -79t-148 -29q-69 0 -125 20.5t-98 55.5l-83 -92l-49 43z" />
    <glyph glyph-name="Ugrave" unicode="&#xd9;" horiz-adv-x="741" 
d="M173 921h157l96 -142h-99zM675 270q0 -145 -81 -216t-224 -71q-145 0 -224.5 70.5t-79.5 216.5v444h157v-444q0 -29 5 -57t21 -50t44.5 -35t76.5 -13q84 0 116 37.5t32 117.5v444h157v-444z" />
    <glyph glyph-name="Uacute" unicode="&#xda;" horiz-adv-x="741" 
d="M414 779h-99l96 142h157zM675 270q0 -145 -81 -216t-224 -71q-145 0 -224.5 70.5t-79.5 216.5v444h157v-444q0 -29 5 -57t21 -50t44.5 -35t76.5 -13q84 0 116 37.5t32 117.5v444h157v-444z" />
    <glyph glyph-name="Ucircumflex" unicode="&#xdb;" horiz-adv-x="741" 
d="M308 921h130l110 -142h-117l-62 81l-64 -81h-108zM675 270q0 -145 -81 -216t-224 -71q-145 0 -224.5 70.5t-79.5 216.5v444h157v-444q0 -29 5 -57t21 -50t44.5 -35t76.5 -13q84 0 116 37.5t32 117.5v444h157v-444z" />
    <glyph glyph-name="Udieresis" unicode="&#xdc;" horiz-adv-x="741" 
d="M200 905h135v-117h-135v117zM406 905h135v-117h-135v117zM675 270q0 -145 -81 -216t-224 -71q-145 0 -224.5 70.5t-79.5 216.5v444h157v-444q0 -29 5 -57t21 -50t44.5 -35t76.5 -13q84 0 116 37.5t32 117.5v444h157v-444z" />
    <glyph glyph-name="Yacute" unicode="&#xdd;" horiz-adv-x="667" 
d="M380 779h-99l96 142h157zM254 278l-263 436h177l167 -282l166 282h175l-265 -440v-274h-157v278z" />
    <glyph glyph-name="Thorn" unicode="&#xde;" horiz-adv-x="667" 
d="M226 281h122q27 0 52 4t44 15.5t30.5 32.5t11.5 55t-11.5 55t-30.5 32.5t-44 15.5t-52 4h-122v-214zM69 714h157v-97h165q67 0 114 -19.5t76.5 -51.5t43 -73.5t13.5 -84.5q0 -44 -13.5 -85t-43 -73t-76.5 -51.5t-114 -19.5h-165v-159h-157v714z" />
    <glyph glyph-name="germandbls" unicode="&#xdf;" horiz-adv-x="611" 
d="M56 491q0 42 8.5 84.5t34 77t71.5 56.5t121 22q45 0 86 -11.5t72.5 -35t50 -60t18.5 -85.5q0 -47 -25.5 -86.5t-67.5 -52.5v-2q33 -7 57 -24t40.5 -40.5t24.5 -53t8 -61.5q0 -47 -16 -89t-45 -74t-68.5 -51t-87.5 -19q-42 0 -82 6v116q10 -3 20 -4t21 -1q25 0 46.5 9.5
t37 26t24 38.5t8.5 47q0 54 -29.5 88t-92.5 34q-8 0 -17 -0.5t-18 -1.5v94q6 -1 11.5 -1.5t10.5 -0.5q20 0 39 5t33.5 16t23.5 28t9 40q0 31 -11 49t-26 27t-31.5 11t-27.5 2q-43 0 -66 -26.5t-23 -71.5v-516h-142v491z" />
    <glyph glyph-name="agrave" unicode="&#xe0;" horiz-adv-x="574" 
d="M128 731h157l96 -142h-99zM48 358q3 50 25 83t56 53t76 28.5t86 8.5q39 0 79 -5.5t73 -21.5t54 -45t21 -75v-269q0 -35 4 -67t14 -48h-144q-4 12 -6.5 24.5t-3.5 25.5q-34 -35 -80 -49.5t-94 -14.5q-37 0 -69 9.5t-56 28.5t-37.5 48t-13.5 69q0 44 15 72.5t40 45.5
t56.5 25.5t64.5 13.5t63 8t53.5 9t37.5 17.5t14 33.5q0 23 -7.5 36.5t-20 21t-29 10t-35.5 2.5q-41 0 -65.5 -18t-28.5 -60h-142zM376 253q-9 -8 -22.5 -12.5t-29 -7.5t-33 -5t-33.5 -5q-17 -3 -32 -8t-26.5 -13.5t-18.5 -22t-7 -32.5q0 -20 7 -32.5t19 -20t28 -10.5t33 -3
q42 0 65 14t34 33.5t13.5 39.5t2.5 32v53z" />
    <glyph glyph-name="aacute" unicode="&#xe1;" horiz-adv-x="574" 
d="M327 589h-99l96 142h157zM48 358q3 50 25 83t56 53t76 28.5t86 8.5q39 0 79 -5.5t73 -21.5t54 -45t21 -75v-269q0 -35 4 -67t14 -48h-144q-4 12 -6.5 24.5t-3.5 25.5q-34 -35 -80 -49.5t-94 -14.5q-37 0 -69 9.5t-56 28.5t-37.5 48t-13.5 69q0 44 15 72.5t40 45.5
t56.5 25.5t64.5 13.5t63 8t53.5 9t37.5 17.5t14 33.5q0 23 -7.5 36.5t-20 21t-29 10t-35.5 2.5q-41 0 -65.5 -18t-28.5 -60h-142zM376 253q-9 -8 -22.5 -12.5t-29 -7.5t-33 -5t-33.5 -5q-17 -3 -32 -8t-26.5 -13.5t-18.5 -22t-7 -32.5q0 -20 7 -32.5t19 -20t28 -10.5t33 -3
q42 0 65 14t34 33.5t13.5 39.5t2.5 32v53z" />
    <glyph glyph-name="acircumflex" unicode="&#xe2;" horiz-adv-x="574" 
d="M228 731h130l110 -142h-117l-62 81l-64 -81h-108zM48 358q3 50 25 83t56 53t76 28.5t86 8.5q39 0 79 -5.5t73 -21.5t54 -45t21 -75v-269q0 -35 4 -67t14 -48h-144q-4 12 -6.5 24.5t-3.5 25.5q-34 -35 -80 -49.5t-94 -14.5q-37 0 -69 9.5t-56 28.5t-37.5 48t-13.5 69
q0 44 15 72.5t40 45.5t56.5 25.5t64.5 13.5t63 8t53.5 9t37.5 17.5t14 33.5q0 23 -7.5 36.5t-20 21t-29 10t-35.5 2.5q-41 0 -65.5 -18t-28.5 -60h-142zM376 253q-9 -8 -22.5 -12.5t-29 -7.5t-33 -5t-33.5 -5q-17 -3 -32 -8t-26.5 -13.5t-18.5 -22t-7 -32.5q0 -20 7 -32.5
t19 -20t28 -10.5t33 -3q42 0 65 14t34 33.5t13.5 39.5t2.5 32v53z" />
    <glyph glyph-name="atilde" unicode="&#xe3;" horiz-adv-x="574" 
d="M475 721q-4 -23 -11 -41.5t-19 -34.5t-31.5 -27t-50.5 -11q-19 0 -34.5 3t-46.5 14q-25 8 -39 12.5t-29 4.5q-19 0 -29.5 -11.5t-15.5 -30.5h-61q4 23 12 44t22.5 38.5t36.5 28.5t46 11q15 0 30 -3.5t42 -14.5q17 -6 33.5 -11.5t31.5 -5.5q18 0 28 7.5t16 27.5h69z
M48 358q3 50 25 83t56 53t76 28.5t86 8.5q39 0 79 -5.5t73 -21.5t54 -45t21 -75v-269q0 -35 4 -67t14 -48h-144q-4 12 -6.5 24.5t-3.5 25.5q-34 -35 -80 -49.5t-94 -14.5q-37 0 -69 9.5t-56 28.5t-37.5 48t-13.5 69q0 44 15 72.5t40 45.5t56.5 25.5t64.5 13.5t63 8t53.5 9
t37.5 17.5t14 33.5q0 23 -7.5 36.5t-20 21t-29 10t-35.5 2.5q-41 0 -65.5 -18t-28.5 -60h-142zM376 253q-9 -8 -22.5 -12.5t-29 -7.5t-33 -5t-33.5 -5q-17 -3 -32 -8t-26.5 -13.5t-18.5 -22t-7 -32.5q0 -20 7 -32.5t19 -20t28 -10.5t33 -3q42 0 65 14t34 33.5t13.5 39.5
t2.5 32v53z" />
    <glyph glyph-name="adieresis" unicode="&#xe4;" horiz-adv-x="574" 
d="M122 715h135v-117h-135v117zM328 715h135v-117h-135v117zM48 358q3 50 25 83t56 53t76 28.5t86 8.5q39 0 79 -5.5t73 -21.5t54 -45t21 -75v-269q0 -35 4 -67t14 -48h-144q-4 12 -6.5 24.5t-3.5 25.5q-34 -35 -80 -49.5t-94 -14.5q-37 0 -69 9.5t-56 28.5t-37.5 48
t-13.5 69q0 44 15 72.5t40 45.5t56.5 25.5t64.5 13.5t63 8t53.5 9t37.5 17.5t14 33.5q0 23 -7.5 36.5t-20 21t-29 10t-35.5 2.5q-41 0 -65.5 -18t-28.5 -60h-142zM376 253q-9 -8 -22.5 -12.5t-29 -7.5t-33 -5t-33.5 -5q-17 -3 -32 -8t-26.5 -13.5t-18.5 -22t-7 -32.5
q0 -20 7 -32.5t19 -20t28 -10.5t33 -3q42 0 65 14t34 33.5t13.5 39.5t2.5 32v53z" />
    <glyph glyph-name="aring" unicode="&#xe5;" horiz-adv-x="574" 
d="M169 684q0 25 9.5 47.5t26 39t39 26t47.5 9.5t47.5 -9.5t39.5 -26t26.5 -39t9.5 -47.5t-9.5 -47.5t-26.5 -39t-39.5 -25.5t-47.5 -9t-47.5 9t-39 25.5t-26 39t-9.5 47.5zM228 684q0 -29 17 -48.5t46 -19.5t46.5 19.5t17.5 48.5t-17.5 48.5t-46.5 19.5t-46 -19.5
t-17 -48.5zM48 358q3 50 25 83t56 53t76 28.5t86 8.5q39 0 79 -5.5t73 -21.5t54 -45t21 -75v-269q0 -35 4 -67t14 -48h-144q-4 12 -6.5 24.5t-3.5 25.5q-34 -35 -80 -49.5t-94 -14.5q-37 0 -69 9.5t-56 28.5t-37.5 48t-13.5 69q0 44 15 72.5t40 45.5t56.5 25.5t64.5 13.5
t63 8t53.5 9t37.5 17.5t14 33.5q0 23 -7.5 36.5t-20 21t-29 10t-35.5 2.5q-41 0 -65.5 -18t-28.5 -60h-142zM376 253q-9 -8 -22.5 -12.5t-29 -7.5t-33 -5t-33.5 -5q-17 -3 -32 -8t-26.5 -13.5t-18.5 -22t-7 -32.5q0 -20 7 -32.5t19 -20t28 -10.5t33 -3q42 0 65 14t34 33.5
t13.5 39.5t2.5 32v53z" />
    <glyph glyph-name="ae" unicode="&#xe6;" horiz-adv-x="907" 
d="M736 314q0 24 -7 46t-21.5 39t-35 27t-47.5 10t-48.5 -10t-36.5 -27t-23 -39t-8 -46h227zM509 224q-1 -26 7 -51.5t24 -45.5t39 -33t53 -13q47 0 71.5 21.5t31.5 59.5h138q-11 -41 -33.5 -74t-54 -55.5t-70 -34.5t-80.5 -12q-56 0 -108 20.5t-85 67.5
q-18 -24 -42.5 -40.5t-52 -27t-57.5 -15.5t-59 -5q-37 0 -71.5 8t-61.5 26t-43.5 47.5t-16.5 72.5q0 44 15 72.5t39.5 46t55.5 26t63 13.5q45 7 78 11.5t54.5 11.5t31.5 18t10 31t-8 33t-21 20.5t-29.5 10t-33.5 2.5q-41 0 -69 -17.5t-30 -62.5h-142q2 49 23.5 82.5t55 54
t77 29.5t88.5 9q22 0 46.5 -3.5t48 -11.5t43 -21.5t33.5 -33.5q30 35 70.5 52.5t102.5 17.5q65 0 110 -25.5t73.5 -68t41.5 -98t13 -115.5h-369zM385 252q-10 -8 -24 -13t-30.5 -8t-34 -5.5t-33.5 -5.5t-31 -7.5t-26.5 -12.5t-18.5 -20.5t-7 -31.5q0 -20 7.5 -32.5t20 -20.5
t28.5 -11t32 -3q19 0 40 6t38 19t28 33t11 49v64z" />
    <glyph glyph-name="ccedilla" unicode="&#xe7;" horiz-adv-x="574" 
d="M193 -147q16 -7 37 -12.5t47 -5.5q18 0 29 8t11 26q0 19 -11.5 25.5t-28.5 6.5q-21 0 -40 -7l-21 24l50 70q-40 4 -74 17q-48 20 -82 55.5t-53 84t-19 106.5q0 60 17.5 111.5t51.5 89t83 58.5t112 21q46 0 88.5 -12t75.5 -36.5t54.5 -61.5t24.5 -86h-139q-14 89 -105 89
q-34 0 -57 -15.5t-37.5 -40t-20.5 -54.5t-6 -58t6 -57t19.5 -52.5t36.5 -38.5t56 -15q50 0 78 28.5t35 76.5h137q-14 -103 -80 -158q-61 -50 -155 -54l-28 -38l1 -2q18 7 35 7t33.5 -4t29.5 -12.5t21 -22t8 -31.5q0 -29 -10 -48.5t-27 -31t-37.5 -16t-42.5 -4.5
q-24 0 -41 1.5t-30.5 4.5t-26 7t-26.5 9z" />
    <glyph glyph-name="egrave" unicode="&#xe8;" horiz-adv-x="574" 
d="M104 731h157l96 -142h-99zM402 314q-10 54 -35.5 82t-77.5 28q-34 0 -56.5 -11.5t-36 -28.5t-19 -36t-6.5 -34h231zM171 224q3 -68 35 -99.5t92 -31.5q43 0 74 21.5t38 45.5h125q-30 -92 -92 -133t-150 -41q-61 0 -110 20t-83 56t-52.5 86t-18.5 110q0 58 19 108t54 86.5
t83.5 57.5t107.5 21q66 0 115 -25.5t80.5 -68.5t45.5 -98t10 -115h-373z" />
    <glyph glyph-name="eacute" unicode="&#xe9;" horiz-adv-x="574" 
d="M338 589h-99l96 142h157zM402 314q-10 54 -35.5 82t-77.5 28q-34 0 -56.5 -11.5t-36 -28.5t-19 -36t-6.5 -34h231zM171 224q3 -68 35 -99.5t92 -31.5q43 0 74 21.5t38 45.5h125q-30 -92 -92 -133t-150 -41q-61 0 -110 20t-83 56t-52.5 86t-18.5 110q0 58 19 108t54 86.5
t83.5 57.5t107.5 21q66 0 115 -25.5t80.5 -68.5t45.5 -98t10 -115h-373z" />
    <glyph glyph-name="ecircumflex" unicode="&#xea;" horiz-adv-x="574" 
d="M229 731h130l110 -142h-117l-62 81l-64 -81h-108zM402 314q-10 54 -35.5 82t-77.5 28q-34 0 -56.5 -11.5t-36 -28.5t-19 -36t-6.5 -34h231zM171 224q3 -68 35 -99.5t92 -31.5q43 0 74 21.5t38 45.5h125q-30 -92 -92 -133t-150 -41q-61 0 -110 20t-83 56t-52.5 86
t-18.5 110q0 58 19 108t54 86.5t83.5 57.5t107.5 21q66 0 115 -25.5t80.5 -68.5t45.5 -98t10 -115h-373z" />
    <glyph glyph-name="edieresis" unicode="&#xeb;" horiz-adv-x="574" 
d="M122 715h135v-117h-135v117zM328 715h135v-117h-135v117zM402 314q-10 54 -35.5 82t-77.5 28q-34 0 -56.5 -11.5t-36 -28.5t-19 -36t-6.5 -34h231zM171 224q3 -68 35 -99.5t92 -31.5q43 0 74 21.5t38 45.5h125q-30 -92 -92 -133t-150 -41q-61 0 -110 20t-83 56t-52.5 86
t-18.5 110q0 58 19 108t54 86.5t83.5 57.5t107.5 21q66 0 115 -25.5t80.5 -68.5t45.5 -98t10 -115h-373z" />
    <glyph glyph-name="igrave" unicode="&#xec;" horiz-adv-x="258" 
d="M-52 731h157l96 -142h-99zM58 517h142v-517h-142v517z" />
    <glyph glyph-name="iacute" unicode="&#xed;" horiz-adv-x="258" 
d="M157 589h-99l96 142h157zM58 517h142v-517h-142v517z" />
    <glyph glyph-name="icircumflex" unicode="&#xee;" horiz-adv-x="258" 
d="M67 731h130l110 -142h-117l-62 81l-64 -81h-108zM58 517h142v-517h-142v517z" />
    <glyph glyph-name="idieresis" unicode="&#xef;" horiz-adv-x="258" 
d="M-41 715h135v-117h-135v117zM165 715h135v-117h-135v117zM58 517h142v-517h-142v517z" />
    <glyph glyph-name="eth" unicode="&#xf0;" horiz-adv-x="611" 
d="M240 647q-44 31 -84 50l92 69q54 -30 99 -66l123 62l52 -59l-114 -57q80 -77 123.5 -167t41.5 -206q0 -62 -19 -114.5t-54 -90.5t-84.5 -60t-110.5 -22t-110 19.5t-84 54t-54 82.5t-19 105q0 46 13.5 92.5t41.5 83.5t71.5 60t103.5 23q29 0 64.5 -8t70.5 -32h2
q-18 42 -47.5 73.5t-54.5 53.5l-112 -56l-58 56zM305 93q36 0 60.5 14t39 37.5t20.5 53t6 60.5q0 28 -7 55t-22 49t-39.5 35.5t-58.5 13.5q-35 0 -58.5 -13.5t-38 -35.5t-21 -49.5t-6.5 -54.5q0 -31 6 -60.5t20.5 -53t38.5 -37.5t60 -14z" />
    <glyph glyph-name="ntilde" unicode="&#xf1;" 
d="M481 721q-4 -23 -11 -41.5t-19 -34.5t-31.5 -27t-50.5 -11q-19 0 -34.5 3t-46.5 14q-25 8 -39 12.5t-29 4.5q-19 0 -29.5 -11.5t-15.5 -30.5h-61q4 23 12 44t22.5 38.5t36.5 28.5t46 11q15 0 30 -3.5t42 -14.5q17 -6 33.5 -11.5t31.5 -5.5q18 0 28 7.5t16 27.5h69z
M54 517h135v-72h3q27 44 70 65t88 21q57 0 93.5 -15.5t57.5 -43t29.5 -67t8.5 -87.5v-318h-142v292q0 64 -20.5 95.5t-70.5 31.5q-58 0 -84 -34.5t-26 -113.5v-271h-142v517z" />
    <glyph glyph-name="ograve" unicode="&#xf2;" horiz-adv-x="611" 
d="M105 731h157l96 -142h-99zM180 258q0 -31 6 -60.5t20.5 -53t38.5 -37.5t60 -14t60.5 14t39 37.5t20.5 53t6 60.5t-6 61t-20.5 53t-39 37.5t-60.5 14.5t-60 -14.5t-38.5 -37.5t-20.5 -53t-6 -61zM38 258q0 62 19 112.5t54 86t84 55t110 19.5t110.5 -19.5t84.5 -55t54 -86
t19 -112.5t-19 -112t-54 -85.5t-84.5 -55t-110.5 -19.5t-110 19.5t-84 55t-54 85.5t-19 112z" />
    <glyph glyph-name="oacute" unicode="&#xf3;" horiz-adv-x="611" 
d="M350 589h-99l96 142h157zM180 258q0 -31 6 -60.5t20.5 -53t38.5 -37.5t60 -14t60.5 14t39 37.5t20.5 53t6 60.5t-6 61t-20.5 53t-39 37.5t-60.5 14.5t-60 -14.5t-38.5 -37.5t-20.5 -53t-6 -61zM38 258q0 62 19 112.5t54 86t84 55t110 19.5t110.5 -19.5t84.5 -55t54 -86
t19 -112.5t-19 -112t-54 -85.5t-84.5 -55t-110.5 -19.5t-110 19.5t-84 55t-54 85.5t-19 112z" />
    <glyph glyph-name="ocircumflex" unicode="&#xf4;" horiz-adv-x="611" 
d="M243 731h130l110 -142h-117l-62 81l-64 -81h-108zM180 258q0 -31 6 -60.5t20.5 -53t38.5 -37.5t60 -14t60.5 14t39 37.5t20.5 53t6 60.5t-6 61t-20.5 53t-39 37.5t-60.5 14.5t-60 -14.5t-38.5 -37.5t-20.5 -53t-6 -61zM38 258q0 62 19 112.5t54 86t84 55t110 19.5
t110.5 -19.5t84.5 -55t54 -86t19 -112.5t-19 -112t-54 -85.5t-84.5 -55t-110.5 -19.5t-110 19.5t-84 55t-54 85.5t-19 112z" />
    <glyph glyph-name="otilde" unicode="&#xf5;" horiz-adv-x="611" 
d="M490 721q-4 -23 -11 -41.5t-19 -34.5t-31.5 -27t-50.5 -11q-19 0 -34.5 3t-46.5 14q-25 8 -39 12.5t-29 4.5q-19 0 -29.5 -11.5t-15.5 -30.5h-61q4 23 12 44t22.5 38.5t36.5 28.5t46 11q15 0 30 -3.5t42 -14.5q17 -6 33.5 -11.5t31.5 -5.5q18 0 28 7.5t16 27.5h69z
M180 258q0 -31 6 -60.5t20.5 -53t38.5 -37.5t60 -14t60.5 14t39 37.5t20.5 53t6 60.5t-6 61t-20.5 53t-39 37.5t-60.5 14.5t-60 -14.5t-38.5 -37.5t-20.5 -53t-6 -61zM38 258q0 62 19 112.5t54 86t84 55t110 19.5t110.5 -19.5t84.5 -55t54 -86t19 -112.5t-19 -112t-54 -85.5
t-84.5 -55t-110.5 -19.5t-110 19.5t-84 55t-54 85.5t-19 112z" />
    <glyph glyph-name="odieresis" unicode="&#xf6;" horiz-adv-x="611" 
d="M136 715h135v-117h-135v117zM342 715h135v-117h-135v117zM180 258q0 -31 6 -60.5t20.5 -53t38.5 -37.5t60 -14t60.5 14t39 37.5t20.5 53t6 60.5t-6 61t-20.5 53t-39 37.5t-60.5 14.5t-60 -14.5t-38.5 -37.5t-20.5 -53t-6 -61zM38 258q0 62 19 112.5t54 86t84 55t110 19.5
t110.5 -19.5t84.5 -55t54 -86t19 -112.5t-19 -112t-54 -85.5t-84.5 -55t-110.5 -19.5t-110 19.5t-84 55t-54 85.5t-19 112z" />
    <glyph glyph-name="divide" unicode="&#xf7;" horiz-adv-x="600" 
d="M216 45q0 18 7 33t18.5 26.5t27 18t32.5 6.5q34 0 59 -24.5t25 -59.5q0 -16 -7 -31t-18 -27t-26.5 -19.5t-31.5 -7.5q-18 0 -33.5 7t-27 18.5t-18.5 27t-7 32.5zM216 460q0 18 7 33.5t18.5 27t27 18t32.5 6.5q34 0 59 -25t25 -60q0 -16 -7 -31t-18 -27t-26.5 -19
t-31.5 -7q-18 0 -33.5 6.5t-27 18t-18.5 27t-7 32.5zM48 306h505v-107h-505v107z" />
    <glyph glyph-name="oslash" unicode="&#xf8;" horiz-adv-x="611" 
d="M104 69q-66 72 -66 189q0 62 19 112.5t54 86t84 55t110 19.5q95 0 163 -48l53 61l37 -32l-54 -61q33 -35 51 -84t18 -109q0 -62 -19 -112t-54 -85.5t-84.5 -55t-110.5 -19.5q-97 0 -165 50l-59 -67l-37 32zM220 127q14 -16 35 -25t50 -9q36 0 60.5 14t39 37.5t20.5 53
t6 60.5q0 24 -4 47.5t-12 43.5zM388 392q-30 32 -83 32q-36 0 -60 -14.5t-38.5 -37.5t-20.5 -53t-6 -61q0 -23 3.5 -45t11.5 -41z" />
    <glyph glyph-name="ugrave" unicode="&#xf9;" 
d="M97 731h157l96 -142h-99zM539 0h-135v72h-3q-27 -44 -70 -65t-88 -21q-57 0 -93.5 15.5t-57.5 43t-29.5 67t-8.5 87.5v318h142v-292q0 -64 20.5 -95.5t70.5 -31.5q58 0 84 34.5t26 113.5v271h142v-517z" />
    <glyph glyph-name="uacute" unicode="&#xfa;" 
d="M341 589h-99l96 142h157zM539 0h-135v72h-3q-27 -44 -70 -65t-88 -21q-57 0 -93.5 15.5t-57.5 43t-29.5 67t-8.5 87.5v318h142v-292q0 -64 20.5 -95.5t70.5 -31.5q58 0 84 34.5t26 113.5v271h142v-517z" />
    <glyph glyph-name="ucircumflex" unicode="&#xfb;" 
d="M234 731h130l110 -142h-117l-62 81l-64 -81h-108zM539 0h-135v72h-3q-27 -44 -70 -65t-88 -21q-57 0 -93.5 15.5t-57.5 43t-29.5 67t-8.5 87.5v318h142v-292q0 -64 20.5 -95.5t70.5 -31.5q58 0 84 34.5t26 113.5v271h142v-517z" />
    <glyph glyph-name="udieresis" unicode="&#xfc;" 
d="M128 715h135v-117h-135v117zM334 715h135v-117h-135v117zM539 0h-135v72h-3q-27 -44 -70 -65t-88 -21q-57 0 -93.5 15.5t-57.5 43t-29.5 67t-8.5 87.5v318h142v-292q0 -64 20.5 -95.5t70.5 -31.5q58 0 84 34.5t26 113.5v271h142v-517z" />
    <glyph glyph-name="yacute" unicode="&#xfd;" horiz-adv-x="519" 
d="M310 589h-99l96 142h157zM309 -65q-23 -62 -64 -89.5t-114 -27.5q-22 0 -43.5 1.5t-43.5 3.5v117q20 -2 41 -4t42 -1q18 2 30.5 11.5t18.5 23.5t6 30q0 17 -6 32l-182 485h152l117 -354h2l113 354h147z" />
    <glyph glyph-name="thorn" unicode="&#xfe;" horiz-adv-x="611" 
d="M438 257q0 31 -6.5 61t-21.5 53.5t-38.5 38t-57.5 14.5q-35 0 -58.5 -14.5t-38 -37.5t-20.5 -53.5t-6 -61.5q0 -32 6.5 -61.5t21 -52t38 -36.5t58.5 -14t58.5 14t38 36.5t20.5 52t6 61.5zM54 714h142v-263h2q26 42 65 61t82 19q61 0 105 -23t73 -61t43 -88.5t14 -105.5
q0 -52 -14 -100t-42.5 -85t-71 -59.5t-99.5 -22.5q-47 0 -88 20t-67 58h-2v-246h-142v896z" />
    <glyph glyph-name="ydieresis" unicode="&#xff;" horiz-adv-x="519" 
d="M94 715h135v-117h-135v117zM300 715h135v-117h-135v117zM309 -65q-23 -62 -64 -89.5t-114 -27.5q-22 0 -43.5 1.5t-43.5 3.5v117q20 -2 41 -4t42 -1q18 2 30.5 11.5t18.5 23.5t6 30q0 17 -6 32l-182 485h152l117 -354h2l113 354h147z" />
    <glyph glyph-name="Amacron" unicode="&#x100;" horiz-adv-x="685" 
d="M159 884h373v-75h-373v75zM249 276h185l-90 262h-2zM264 714h161l267 -714h-163l-54 159h-267l-56 -159h-159z" />
    <glyph glyph-name="amacron" unicode="&#x101;" horiz-adv-x="574" 
d="M107 694h373v-75h-373v75zM48 358q3 50 25 83t56 53t76 28.5t86 8.5q39 0 79 -5.5t73 -21.5t54 -45t21 -75v-269q0 -35 4 -67t14 -48h-144q-4 12 -6.5 24.5t-3.5 25.5q-34 -35 -80 -49.5t-94 -14.5q-37 0 -69 9.5t-56 28.5t-37.5 48t-13.5 69q0 44 15 72.5t40 45.5
t56.5 25.5t64.5 13.5t63 8t53.5 9t37.5 17.5t14 33.5q0 23 -7.5 36.5t-20 21t-29 10t-35.5 2.5q-41 0 -65.5 -18t-28.5 -60h-142zM376 253q-9 -8 -22.5 -12.5t-29 -7.5t-33 -5t-33.5 -5q-17 -3 -32 -8t-26.5 -13.5t-18.5 -22t-7 -32.5q0 -20 7 -32.5t19 -20t28 -10.5t33 -3
q42 0 65 14t34 33.5t13.5 39.5t2.5 32v53z" />
    <glyph glyph-name="Abreve" unicode="&#x102;" horiz-adv-x="685" 
d="M242 923q3 -20 13 -34t24.5 -22t30.5 -11.5t31 -3.5q45 0 73 16.5t37 54.5h63q-10 -77 -57 -111.5t-121 -34.5q-72 0 -112.5 37t-46.5 109h65zM249 276h185l-90 262h-2zM264 714h161l267 -714h-163l-54 159h-267l-56 -159h-159z" />
    <glyph glyph-name="abreve" unicode="&#x103;" horiz-adv-x="574" 
d="M191 733q3 -20 13 -34t24.5 -22t30.5 -11.5t31 -3.5q45 0 73 16.5t37 54.5h63q-10 -77 -57 -111.5t-121 -34.5q-72 0 -112.5 37t-46.5 109h65zM48 358q3 50 25 83t56 53t76 28.5t86 8.5q39 0 79 -5.5t73 -21.5t54 -45t21 -75v-269q0 -35 4 -67t14 -48h-144
q-4 12 -6.5 24.5t-3.5 25.5q-34 -35 -80 -49.5t-94 -14.5q-37 0 -69 9.5t-56 28.5t-37.5 48t-13.5 69q0 44 15 72.5t40 45.5t56.5 25.5t64.5 13.5t63 8t53.5 9t37.5 17.5t14 33.5q0 23 -7.5 36.5t-20 21t-29 10t-35.5 2.5q-41 0 -65.5 -18t-28.5 -60h-142zM376 253
q-9 -8 -22.5 -12.5t-29 -7.5t-33 -5t-33.5 -5q-17 -3 -32 -8t-26.5 -13.5t-18.5 -22t-7 -32.5q0 -20 7 -32.5t19 -20t28 -10.5t33 -3q42 0 65 14t34 33.5t13.5 39.5t2.5 32v53z" />
    <glyph glyph-name="Aogonek" unicode="&#x104;" horiz-adv-x="685" 
d="M655 -149q-29 -37 -61 -52.5t-72 -15.5q-9 0 -27 2t-36 11t-31 28t-13 41q0 16 3 26.5t13 26.5t33 36.5t65 45.5l-54 159h-267l-56 -159h-159l271 714h161l267 -714h-98q-48 -43 -65.5 -69.5t-17.5 -47.5q0 -20 12 -30t27 -10q16 0 28 6t29 24zM249 276h185l-90 262h-2z
" />
    <glyph glyph-name="aogonek" unicode="&#x105;" horiz-adv-x="572" 
d="M517 -148q-29 -37 -61 -52.5t-72 -15.5q-9 0 -27 2t-36 11t-31 28t-13 41q0 16 3 26.5t13 26.5t33 36.5t65 45.5q-3 11 -5.5 23.5t-3.5 25.5q-34 -35 -80 -49.5t-94 -14.5q-37 0 -69 9.5t-56 28.5t-37.5 48t-13.5 69q0 44 15.5 72.5t40 45.5t56 25.5t63.5 13.5t63 8t55 9
t38 17.5t13 33.5q0 22 -7.5 36t-20 21.5t-29 10t-35.5 2.5q-42 0 -66 -18t-28 -60h-142q3 49 25 82.5t56 53.5t76 28.5t86 8.5q39 0 79 -5.5t73 -21.5t54 -45t21 -75v-269q0 -35 4 -67t14 -48h-82q-46 -42 -63.5 -68.5t-17.5 -47.5q0 -20 12 -30t27 -10q16 0 28 6t29 24z
M376 253q-9 -8 -22.5 -12.5t-29 -7.5t-33 -5t-33.5 -5q-17 -3 -32 -8t-26.5 -13.5t-18.5 -22t-7 -32.5q0 -20 7 -32.5t19 -20t28 -10.5t33 -3q42 0 65 14t34 33.5t13.5 39.5t2.5 32v53z" />
    <glyph glyph-name="Cacute" unicode="&#x106;" horiz-adv-x="741" 
d="M432 779h-99l96 142h157zM545 474q-4 27 -18 49.5t-35 39.5t-47.5 26.5t-55.5 9.5q-53 0 -90 -20.5t-60 -55t-33.5 -78.5t-10.5 -91q0 -45 10.5 -87.5t33.5 -76.5t60 -54.5t90 -20.5q72 0 112.5 44.5t49.5 115.5h152q-6 -67 -31 -121t-66 -92t-96 -58.5t-121 -20.5
q-83 0 -148 29t-110 79t-69 118t-24 145q0 79 24 148t69 120t110 80t148 29q59 0 111.5 -17t94 -49.5t68.5 -80.5t34 -110h-152z" />
    <glyph glyph-name="cacute" unicode="&#x107;" horiz-adv-x="574" 
d="M350 589h-99l96 142h157zM406 335q-14 89 -105 89q-34 0 -57 -15.5t-37.5 -40t-20.5 -54.5t-6 -58t6 -57t19.5 -52.5t36.5 -38.5t56 -15q50 0 78 28.5t35 76.5h137q-14 -103 -80 -157.5t-169 -54.5q-59 0 -107 19.5t-82 55t-53 84t-19 106.5q0 60 17.5 111.5t51.5 89
t83 58.5t112 21q46 0 88.5 -12t75.5 -36.5t54.5 -61.5t24.5 -86h-139z" />
    <glyph glyph-name="Ccircumflex" unicode="&#x108;" horiz-adv-x="741" 
d="M325 921h130l110 -142h-117l-62 81l-64 -81h-108zM545 474q-4 27 -18 49.5t-35 39.5t-47.5 26.5t-55.5 9.5q-53 0 -90 -20.5t-60 -55t-33.5 -78.5t-10.5 -91q0 -45 10.5 -87.5t33.5 -76.5t60 -54.5t90 -20.5q72 0 112.5 44.5t49.5 115.5h152q-6 -67 -31 -121t-66 -92
t-96 -58.5t-121 -20.5q-83 0 -148 29t-110 79t-69 118t-24 145q0 79 24 148t69 120t110 80t148 29q59 0 111.5 -17t94 -49.5t68.5 -80.5t34 -110h-152z" />
    <glyph glyph-name="ccircumflex" unicode="&#x109;" horiz-adv-x="574" 
d="M243 731h130l110 -142h-117l-62 81l-64 -81h-108zM406 335q-14 89 -105 89q-34 0 -57 -15.5t-37.5 -40t-20.5 -54.5t-6 -58t6 -57t19.5 -52.5t36.5 -38.5t56 -15q50 0 78 28.5t35 76.5h137q-14 -103 -80 -157.5t-169 -54.5q-59 0 -107 19.5t-82 55t-53 84t-19 106.5
q0 60 17.5 111.5t51.5 89t83 58.5t112 21q46 0 88.5 -12t75.5 -36.5t54.5 -61.5t24.5 -86h-139z" />
    <glyph glyph-name="Cdotaccent" unicode="&#x10a;" horiz-adv-x="741" 
d="M315 905h135v-117h-135v117zM545 474q-4 27 -18 49.5t-35 39.5t-47.5 26.5t-55.5 9.5q-53 0 -90 -20.5t-60 -55t-33.5 -78.5t-10.5 -91q0 -45 10.5 -87.5t33.5 -76.5t60 -54.5t90 -20.5q72 0 112.5 44.5t49.5 115.5h152q-6 -67 -31 -121t-66 -92t-96 -58.5t-121 -20.5
q-83 0 -148 29t-110 79t-69 118t-24 145q0 79 24 148t69 120t110 80t148 29q59 0 111.5 -17t94 -49.5t68.5 -80.5t34 -110h-152z" />
    <glyph glyph-name="cdotaccent" unicode="&#x10b;" horiz-adv-x="574" 
d="M237 715h135v-117h-135v117zM406 335q-14 89 -105 89q-34 0 -57 -15.5t-37.5 -40t-20.5 -54.5t-6 -58t6 -57t19.5 -52.5t36.5 -38.5t56 -15q50 0 78 28.5t35 76.5h137q-14 -103 -80 -157.5t-169 -54.5q-59 0 -107 19.5t-82 55t-53 84t-19 106.5q0 60 17.5 111.5t51.5 89
t83 58.5t112 21q46 0 88.5 -12t75.5 -36.5t54.5 -61.5t24.5 -86h-139z" />
    <glyph glyph-name="Ccaron" unicode="&#x10c;" horiz-adv-x="741" 
d="M448 779h-130l-111 142h112l64 -81l65 81h110zM545 474q-4 27 -18 49.5t-35 39.5t-47.5 26.5t-55.5 9.5q-53 0 -90 -20.5t-60 -55t-33.5 -78.5t-10.5 -91q0 -45 10.5 -87.5t33.5 -76.5t60 -54.5t90 -20.5q72 0 112.5 44.5t49.5 115.5h152q-6 -67 -31 -121t-66 -92
t-96 -58.5t-121 -20.5q-83 0 -148 29t-110 79t-69 118t-24 145q0 79 24 148t69 120t110 80t148 29q59 0 111.5 -17t94 -49.5t68.5 -80.5t34 -110h-152z" />
    <glyph glyph-name="ccaron" unicode="&#x10d;" horiz-adv-x="574" 
d="M372 589h-130l-111 142h112l64 -81l65 81h110zM406 335q-14 89 -105 89q-34 0 -57 -15.5t-37.5 -40t-20.5 -54.5t-6 -58t6 -57t19.5 -52.5t36.5 -38.5t56 -15q50 0 78 28.5t35 76.5h137q-14 -103 -80 -157.5t-169 -54.5q-59 0 -107 19.5t-82 55t-53 84t-19 106.5
q0 60 17.5 111.5t51.5 89t83 58.5t112 21q46 0 88.5 -12t75.5 -36.5t54.5 -61.5t24.5 -86h-139z" />
    <glyph glyph-name="Dcaron" unicode="&#x10e;" horiz-adv-x="741" 
d="M398 779h-130l-111 142h112l64 -81l65 81h110zM226 132h140q34 0 66 11t57 36.5t40 66.5t15 100q0 54 -10.5 97.5t-34.5 74.5t-63.5 47.5t-97.5 16.5h-112v-450zM69 714h308q69 0 128.5 -22t103 -66t68 -110t24.5 -155q0 -78 -20 -144t-60.5 -114t-101 -75.5
t-142.5 -27.5h-308v714z" />
    <glyph glyph-name="dcaron" unicode="&#x10f;" horiz-adv-x="720" 
d="M701 572h-98l35 142h148zM421 260q0 31 -6 61t-20.5 52.5t-38 36.5t-57.5 14q-35 0 -59 -14t-38.5 -37t-21 -52.5t-6.5 -61.5q0 -30 7 -60t22.5 -53.5t39 -38t56.5 -14.5q35 0 58.5 14t37.5 37.5t20 53.5t6 62zM423 66h-2q-25 -42 -66 -61t-91 -19q-59 0 -102.5 23
t-72 61.5t-43 88.5t-14.5 104q0 52 14.5 100.5t43 85.5t71.5 59.5t100 22.5q46 0 87.5 -19.5t65.5 -57.5h2v260h142v-714h-135v66z" />
    <glyph glyph-name="Dcroat" unicode="&#x110;" horiz-adv-x="741" 
d="M226 427h160v-117h-160v-178h140q34 0 66 11t57 36.5t40 66.5t15 100q0 54 -10.5 97.5t-34.5 74.5t-63.5 47.5t-97.5 16.5h-112v-155zM69 311h-66v116h66v287h308q69 0 128.5 -22t103 -66t68 -110t24.5 -155q0 -78 -20 -144t-60.5 -114t-101 -75.5t-142.5 -27.5h-308v311
z" />
    <glyph glyph-name="dcroat" unicode="&#x111;" horiz-adv-x="634" 
d="M261 642h155v72h142v-72h76v-75h-76v-567h-135v66h-2q-25 -42 -66 -61t-91 -19q-59 0 -102.5 23t-72 61.5t-43 88.5t-14.5 104q0 52 14.5 100.5t43 85.5t71.5 59.5t100 22.5q46 0 87.5 -19.5t65.5 -57.5h2v113h-155v75zM421 260q0 31 -6 61t-20.5 52.5t-38 36.5t-57.5 14
q-35 0 -59 -14t-38.5 -37t-21 -52.5t-6.5 -61.5q0 -30 7 -60t22.5 -53.5t39 -38t56.5 -14.5q35 0 58.5 14t37.5 37.5t20 53.5t6 62z" />
    <glyph glyph-name="Emacron" unicode="&#x112;" horiz-adv-x="648" 
d="M148 884h373v-75h-373v75zM69 714h534v-132h-377v-153h346v-122h-346v-175h385v-132h-542v714z" />
    <glyph glyph-name="emacron" unicode="&#x113;" horiz-adv-x="574" 
d="M105 694h373v-75h-373v75zM402 314q-10 54 -35.5 82t-77.5 28q-34 0 -56.5 -11.5t-36 -28.5t-19 -36t-6.5 -34h231zM171 224q3 -68 35 -99.5t92 -31.5q43 0 74 21.5t38 45.5h125q-30 -92 -92 -133t-150 -41q-61 0 -110 20t-83 56t-52.5 86t-18.5 110q0 58 19 108t54 86.5
t83.5 57.5t107.5 21q66 0 115 -25.5t80.5 -68.5t45.5 -98t10 -115h-373z" />
    <glyph glyph-name="Ebreve" unicode="&#x114;" horiz-adv-x="648" 
d="M226 923q3 -20 13 -34t24.5 -22t30.5 -11.5t31 -3.5q45 0 73 16.5t37 54.5h63q-10 -77 -57 -111.5t-121 -34.5q-72 0 -112.5 37t-46.5 109h65zM69 714h534v-132h-377v-153h346v-122h-346v-175h385v-132h-542v714z" />
    <glyph glyph-name="ebreve" unicode="&#x115;" horiz-adv-x="574" 
d="M190 733q3 -20 13 -34t24.5 -22t30.5 -11.5t31 -3.5q45 0 73 16.5t37 54.5h63q-10 -77 -57 -111.5t-121 -34.5q-72 0 -112.5 37t-46.5 109h65zM402 314q-10 54 -35.5 82t-77.5 28q-34 0 -56.5 -11.5t-36 -28.5t-19 -36t-6.5 -34h231zM171 224q3 -68 35 -99.5t92 -31.5
q43 0 74 21.5t38 45.5h125q-30 -92 -92 -133t-150 -41q-61 0 -110 20t-83 56t-52.5 86t-18.5 110q0 58 19 108t54 86.5t83.5 57.5t107.5 21q66 0 115 -25.5t80.5 -68.5t45.5 -98t10 -115h-373z" />
    <glyph glyph-name="Edotaccent" unicode="&#x116;" horiz-adv-x="648" 
d="M267 905h135v-117h-135v117zM69 714h534v-132h-377v-153h346v-122h-346v-175h385v-132h-542v714z" />
    <glyph glyph-name="edotaccent" unicode="&#x117;" horiz-adv-x="574" 
d="M225 715h135v-117h-135v117zM402 314q-10 54 -35.5 82t-77.5 28q-34 0 -56.5 -11.5t-36 -28.5t-19 -36t-6.5 -34h231zM171 224q3 -68 35 -99.5t92 -31.5q43 0 74 21.5t38 45.5h125q-30 -92 -92 -133t-150 -41q-61 0 -110 20t-83 56t-52.5 86t-18.5 110q0 58 19 108
t54 86.5t83.5 57.5t107.5 21q66 0 115 -25.5t80.5 -68.5t45.5 -98t10 -115h-373z" />
    <glyph glyph-name="Eogonek" unicode="&#x118;" horiz-adv-x="648" 
d="M611 -149q-29 -37 -61 -52.5t-72 -15.5q-9 0 -27 2t-36 11t-31 28t-13 41q0 16 3 26.5t13 26.5t33 36.5t65 45.5h-416v714h534v-132h-377v-153h346v-122h-346v-175h385v-132h-61q-48 -43 -65.5 -69.5t-17.5 -47.5q0 -20 12 -30t27 -10q16 0 28 6t29 24z" />
    <glyph glyph-name="eogonek" unicode="&#x119;" horiz-adv-x="574" 
d="M409 -149q-29 -37 -61 -52.5t-72 -15.5q-9 0 -27 2t-36 11t-31 28t-13 41q0 16 3 26.5t13 26.5t33 37q17 15 44 33q-43 3 -79 18q-49 20 -83 56t-52.5 86t-18.5 110q0 58 19 108t54 86.5t83.5 57.5t107.5 21q66 0 115 -25.5t80.5 -68.5t45.5 -98t10 -115h-373
q3 -68 35 -99.5t92 -31.5q43 0 74 21.5t38 45.5h125q-30 -92 -92 -133q-47 -31 -108 -38q-38 -35 -53 -58q-17 -27 -17 -48q0 -20 12 -30t27 -10q16 0 28 6t29 24zM402 314q-10 54 -35.5 82t-77.5 28q-34 0 -56.5 -11.5t-36 -28.5t-19 -36t-6.5 -34h231z" />
    <glyph glyph-name="Ecaron" unicode="&#x11a;" horiz-adv-x="648" 
d="M398 779h-130l-111 142h112l64 -81l65 81h110zM69 714h534v-132h-377v-153h346v-122h-346v-175h385v-132h-542v714z" />
    <glyph glyph-name="ecaron" unicode="&#x11b;" horiz-adv-x="574" 
d="M359 589h-130l-111 142h112l64 -81l65 81h110zM402 314q-10 54 -35.5 82t-77.5 28q-34 0 -56.5 -11.5t-36 -28.5t-19 -36t-6.5 -34h231zM171 224q3 -68 35 -99.5t92 -31.5q43 0 74 21.5t38 45.5h125q-30 -92 -92 -133t-150 -41q-61 0 -110 20t-83 56t-52.5 86t-18.5 110
q0 58 19 108t54 86.5t83.5 57.5t107.5 21q66 0 115 -25.5t80.5 -68.5t45.5 -98t10 -115h-373z" />
    <glyph glyph-name="Gcircumflex" unicode="&#x11c;" horiz-adv-x="759" 
d="M326 921h130l110 -142h-117l-62 81l-64 -81h-108zM585 81q-42 -54 -93 -76t-103 -22q-83 0 -148 29t-110 79t-69 118t-24 145q0 79 24 148t69 120t110 80t148 29q55 0 106.5 -16.5t92.5 -48.5t68.5 -79t33.5 -108h-150q-14 60 -54.5 90t-96.5 30q-53 0 -90 -20.5t-60 -55
t-33.5 -78.5t-10.5 -91q0 -45 10.5 -87.5t33.5 -76.5t60 -54.5t90 -20.5q77 0 120 39.5t50 114.5h-158v117h300v-386h-100z" />
    <glyph glyph-name="gcircumflex" unicode="&#x11d;" horiz-adv-x="611" 
d="M257 731h130l110 -142h-117l-62 81l-64 -81h-108zM295 122q30 0 53 12t38 32t22.5 45.5t7.5 53.5q0 31 -6 60t-20 51t-37.5 35t-57.5 13q-30 0 -51.5 -12t-36 -32.5t-21 -47t-6.5 -55.5q0 -28 5.5 -55.5t19 -49.5t35.5 -36t55 -14zM551 33q0 -21 -3.5 -46.5t-13.5 -51
t-28 -49t-48 -42t-73 -29.5t-102 -11q-38 0 -77.5 9.5t-72 29.5t-54 51.5t-24.5 75.5h141q10 -40 39 -55.5t67 -15.5q59 0 87 36t27 92v68h-2q-23 -41 -65.5 -60.5t-89.5 -19.5q-58 0 -100 20.5t-69 56t-39.5 83t-12.5 100.5q0 50 14.5 96.5t42.5 82t69.5 56.5t95.5 21
q51 0 89.5 -19t64.5 -64h2v69h135v-484z" />
    <glyph glyph-name="Gbreve" unicode="&#x11e;" horiz-adv-x="759" 
d="M281 923q3 -20 13 -34t24.5 -22t30.5 -11.5t31 -3.5q45 0 73 16.5t37 54.5h63q-10 -77 -57 -111.5t-121 -34.5q-72 0 -112.5 37t-46.5 109h65zM585 81q-42 -54 -93 -76t-103 -22q-83 0 -148 29t-110 79t-69 118t-24 145q0 79 24 148t69 120t110 80t148 29
q55 0 106.5 -16.5t92.5 -48.5t68.5 -79t33.5 -108h-150q-14 60 -54.5 90t-96.5 30q-53 0 -90 -20.5t-60 -55t-33.5 -78.5t-10.5 -91q0 -45 10.5 -87.5t33.5 -76.5t60 -54.5t90 -20.5q77 0 120 39.5t50 114.5h-158v117h300v-386h-100z" />
    <glyph glyph-name="gbreve" unicode="&#x11f;" horiz-adv-x="611" 
d="M197 733q3 -20 13 -34t24.5 -22t30.5 -11.5t31 -3.5q45 0 73 16.5t37 54.5h63q-10 -77 -57 -111.5t-121 -34.5q-72 0 -112.5 37t-46.5 109h65zM295 122q30 0 53 12t38 32t22.5 45.5t7.5 53.5q0 31 -6 60t-20 51t-37.5 35t-57.5 13q-30 0 -51.5 -12t-36 -32.5t-21 -47
t-6.5 -55.5q0 -28 5.5 -55.5t19 -49.5t35.5 -36t55 -14zM551 33q0 -21 -3.5 -46.5t-13.5 -51t-28 -49t-48 -42t-73 -29.5t-102 -11q-38 0 -77.5 9.5t-72 29.5t-54 51.5t-24.5 75.5h141q10 -40 39 -55.5t67 -15.5q59 0 87 36t27 92v68h-2q-23 -41 -65.5 -60.5t-89.5 -19.5
q-58 0 -100 20.5t-69 56t-39.5 83t-12.5 100.5q0 50 14.5 96.5t42.5 82t69.5 56.5t95.5 21q51 0 89.5 -19t64.5 -64h2v69h135v-484z" />
    <glyph glyph-name="Gdotaccent" unicode="&#x120;" horiz-adv-x="759" 
d="M321 905h135v-117h-135v117zM585 81q-42 -54 -93 -76t-103 -22q-83 0 -148 29t-110 79t-69 118t-24 145q0 79 24 148t69 120t110 80t148 29q55 0 106.5 -16.5t92.5 -48.5t68.5 -79t33.5 -108h-150q-14 60 -54.5 90t-96.5 30q-53 0 -90 -20.5t-60 -55t-33.5 -78.5
t-10.5 -91q0 -45 10.5 -87.5t33.5 -76.5t60 -54.5t90 -20.5q77 0 120 39.5t50 114.5h-158v117h300v-386h-100z" />
    <glyph glyph-name="gdotaccent" unicode="&#x121;" horiz-adv-x="611" 
d="M240 715h135v-117h-135v117zM295 122q30 0 53 12t38 32t22.5 45.5t7.5 53.5q0 31 -6 60t-20 51t-37.5 35t-57.5 13q-30 0 -51.5 -12t-36 -32.5t-21 -47t-6.5 -55.5q0 -28 5.5 -55.5t19 -49.5t35.5 -36t55 -14zM551 33q0 -21 -3.5 -46.5t-13.5 -51t-28 -49t-48 -42
t-73 -29.5t-102 -11q-38 0 -77.5 9.5t-72 29.5t-54 51.5t-24.5 75.5h141q10 -40 39 -55.5t67 -15.5q59 0 87 36t27 92v68h-2q-23 -41 -65.5 -60.5t-89.5 -19.5q-58 0 -100 20.5t-69 56t-39.5 83t-12.5 100.5q0 50 14.5 96.5t42.5 82t69.5 56.5t95.5 21q51 0 89.5 -19
t64.5 -64h2v69h135v-484z" />
    <glyph glyph-name="uni0122" unicode="&#x122;" horiz-adv-x="759" 
d="M309 -50h145v-73q0 -29 -11 -49.5t-28.5 -29.5t-41.5 -12t-54 -3v37q24 2 38 10t19 27h-67v93zM585 81q-42 -54 -93 -76t-103 -22q-83 0 -148 29t-110 79t-69 118t-24 145q0 79 24 148t69 120t110 80t148 29q55 0 106.5 -16.5t92.5 -48.5t68.5 -79t33.5 -108h-150
q-14 60 -54.5 90t-96.5 30q-53 0 -90 -20.5t-60 -55t-33.5 -78.5t-10.5 -91q0 -45 10.5 -87.5t33.5 -76.5t60 -54.5t90 -20.5q77 0 120 39.5t50 114.5h-158v117h300v-386h-100z" />
    <glyph glyph-name="uni0123" unicode="&#x123;" horiz-adv-x="611" 
d="M384 621h-145v73q0 29 11 49.5t28.5 29.5t41.5 12t54 3v-37q-24 -2 -38 -10t-19 -27h67v-93zM295 122q30 0 53 12t38 32t22.5 45.5t7.5 53.5q0 31 -6 60t-20 51t-37.5 35t-57.5 13q-30 0 -51.5 -12t-36 -32.5t-21 -47t-6.5 -55.5q0 -28 5.5 -55.5t19 -49.5t35.5 -36
t55 -14zM551 33q0 -21 -3.5 -46.5t-13.5 -51t-28 -49t-48 -42t-73 -29.5t-102 -11q-38 0 -77.5 9.5t-72 29.5t-54 51.5t-24.5 75.5h141q10 -40 39 -55.5t67 -15.5q59 0 87 36t27 92v68h-2q-23 -41 -65.5 -60.5t-89.5 -19.5q-58 0 -100 20.5t-69 56t-39.5 83t-12.5 100.5
q0 50 14.5 96.5t42.5 82t69.5 56.5t95.5 21q51 0 89.5 -19t64.5 -64h2v69h135v-484z" />
    <glyph glyph-name="Hcircumflex" unicode="&#x124;" horiz-adv-x="741" 
d="M305 921h130l110 -142h-117l-62 81l-64 -81h-108zM69 714h157v-274h289v274h157v-714h-157v308h-289v-308h-157v714z" />
    <glyph glyph-name="hcircumflex" unicode="&#x125;" 
d="M235 921h130l110 -142h-117l-62 81l-64 -81h-108zM54 714h142v-269h3q27 44 69 65t82 21q57 0 93.5 -15.5t57.5 -43t29.5 -67t8.5 -87.5v-318h-142v292q0 64 -20.5 95.5t-70.5 31.5q-58 0 -84 -34.5t-26 -113.5v-271h-142v714z" />
    <glyph glyph-name="Hbar" unicode="&#x126;" horiz-adv-x="741" 
d="M69 714h157v-143h289v143h157v-714h-157v298h-289v-298h-157v714zM515 420v76h-289v-76h289z" />
    <glyph glyph-name="hbar" unicode="&#x127;" horiz-adv-x="623" 
d="M-6 642h90v72h142v-72h141v-75h-141v-122h3q27 44 69 65t82 21q57 0 93.5 -15.5t57.5 -43t29.5 -67t8.5 -87.5v-318h-142v292q0 64 -20.5 95.5t-70.5 31.5q-58 0 -84 -34.5t-26 -113.5v-271h-142v567h-90v75z" />
    <glyph glyph-name="Itilde" unicode="&#x128;" horiz-adv-x="295" 
d="M335 911q-4 -23 -11 -41.5t-19 -34.5t-31.5 -27t-50.5 -11q-19 0 -34.5 3t-46.5 14q-25 8 -39 12.5t-29 4.5q-19 0 -29.5 -11.5t-15.5 -30.5h-61q4 23 12 44t22.5 38.5t36.5 28.5t46 11q15 0 30 -3.5t42 -14.5q17 -6 33.5 -11.5t31.5 -5.5q18 0 28 7.5t16 27.5h69z
M69 714h157v-714h-157v714z" />
    <glyph glyph-name="itilde" unicode="&#x129;" horiz-adv-x="258" 
d="M313 721q-4 -23 -11 -41.5t-19 -34.5t-31.5 -27t-50.5 -11q-19 0 -34.5 3t-46.5 14q-25 8 -39 12.5t-29 4.5q-19 0 -29.5 -11.5t-15.5 -30.5h-61q4 23 12 44t22.5 38.5t36.5 28.5t46 11q15 0 30 -3.5t42 -14.5q17 -6 33.5 -11.5t31.5 -5.5q18 0 28 7.5t16 27.5h69z
M58 517h142v-517h-142v517z" />
    <glyph glyph-name="Imacron" unicode="&#x12a;" horiz-adv-x="295" 
d="M-37 884h373v-75h-373v75zM69 714h157v-714h-157v714z" />
    <glyph glyph-name="imacron" unicode="&#x12b;" horiz-adv-x="258" 
d="M-56 694h373v-75h-373v75zM58 517h142v-517h-142v517z" />
    <glyph glyph-name="Iogonek" unicode="&#x12e;" horiz-adv-x="295" 
d="M255 -149q-26 -37 -55 -52.5t-65 -15.5q-8 0 -24 2t-32.5 11t-28 28t-11.5 41q0 16 2.5 26.5t11.5 26.5t30 36.5t59 45.5h-73v714h157v-714h-26q-43 -43 -59 -69.5t-16 -47.5q0 -20 11 -30t25 -10t25 6t26 24z" />
    <glyph glyph-name="iogonek" unicode="&#x12f;" horiz-adv-x="258" 
d="M234 -149q-26 -37 -55 -52.5t-65 -15.5q-8 0 -24 2t-32.5 11t-28 28t-11.5 41q0 16 2.5 26.5t11.5 26.5t30 36.5t59 45.5h-63v517h142v-517h-21q-43 -43 -59 -69.5t-16 -47.5q0 -20 11 -30t25 -10t25 6t26 24zM200 597h-142v117h142v-117z" />
    <glyph glyph-name="Idotaccent" unicode="&#x130;" horiz-adv-x="295" 
d="M81 905h135v-117h-135v117zM69 714h157v-714h-157v714z" />
    <glyph glyph-name="dotlessi" unicode="&#x131;" horiz-adv-x="258" 
d="M58 517h142v-517h-142v517z" />
    <glyph glyph-name="IJ" unicode="&#x132;" horiz-adv-x="848" 
d="M779 225q0 -23 -3 -50t-11.5 -54t-24.5 -51.5t-42.5 -44t-65 -31t-91.5 -11.5q-45 0 -87 12.5t-75 39.5t-53 68.5t-20 100.5v62h142v-32q0 -26 4 -48t14 -37.5t27.5 -24.5t45.5 -9q31 0 48 11t24.5 28.5t9 38t1.5 39.5v482h157v-489zM69 714h157v-714h-157v714z" />
    <glyph glyph-name="ij" unicode="&#x133;" horiz-adv-x="510" 
d="M441 597h-142v117h142v-117zM213 -61q12 -4 31 -4q22 0 38.5 8.5t16.5 37.5v536h142v-543q0 -40 -8.5 -69t-29 -48.5t-55.5 -29t-89 -9.5q-11 0 -23 1t-23 3v117zM200 597h-142v117h142v-117zM58 517h142v-517h-142v517z" />
    <glyph glyph-name="Jcircumflex" unicode="&#x134;" horiz-adv-x="556" 
d="M345 921h130l110 -142h-117l-62 81l-64 -81h-108zM487 225q0 -23 -3 -50t-11.5 -54t-24.5 -51.5t-42.5 -44t-65 -31t-91.5 -11.5q-45 0 -87 12.5t-75 39.5t-53 68.5t-20 100.5v62h142v-32q0 -26 4 -48t14 -37.5t27.5 -24.5t45.5 -9q31 0 48 11t24.5 28.5t9 38t1.5 39.5
v482h157v-489z" />
    <glyph glyph-name="jcircumflex" unicode="&#x135;" horiz-adv-x="278" 
d="M71 731h130l110 -142h-117l-62 81l-64 -81h-108zM-19 -61q12 -4 31 -4q22 0 38.5 8.5t16.5 37.5v536h142v-543q0 -40 -8.5 -69t-29 -48.5t-55.5 -29t-89 -9.5q-11 0 -23 1t-23 3v117z" />
    <glyph glyph-name="uni0136" unicode="&#x136;" horiz-adv-x="722" 
d="M297 -50h145v-73q0 -29 -11 -49.5t-28.5 -29.5t-41.5 -12t-54 -3v37q24 2 38 10t19 27h-67v93zM69 714h157v-296l279 296h196l-279 -282l306 -432h-197l-215 321l-90 -91v-230h-157v714z" />
    <glyph glyph-name="uni0137" unicode="&#x137;" horiz-adv-x="574" 
d="M235 -50h145v-73q0 -29 -11 -49.5t-28.5 -29.5t-41.5 -12t-54 -3v37q24 2 38 10t19 27h-67v93zM67 714h142v-383l179 186h168l-195 -190l217 -327h-172l-142 231l-55 -53v-178h-142v714z" />
    <glyph glyph-name="Lacute" unicode="&#x139;" 
d="M196 779h-99l96 142h157zM69 714h157v-582h348v-132h-505v714z" />
    <glyph glyph-name="lacute" unicode="&#x13a;" horiz-adv-x="258" 
d="M157 779h-99l96 142h157zM58 714h142v-714h-142v714z" />
    <glyph glyph-name="uni013B" unicode="&#x13b;" 
d="M244 -50h145v-73q0 -29 -11 -49.5t-28.5 -29.5t-41.5 -12t-54 -3v37q24 2 38 10t19 27h-67v93zM69 714h157v-582h348v-132h-505v714z" />
    <glyph glyph-name="uni013C" unicode="&#x13c;" horiz-adv-x="258" 
d="M57 -50h145v-73q0 -29 -11 -49.5t-28.5 -29.5t-41.5 -12t-54 -3v37q24 2 38 10t19 27h-67v93zM58 714h142v-714h-142v714z" />
    <glyph glyph-name="Lcaron" unicode="&#x13d;" 
d="M419 572h-98l35 142h148zM69 714h157v-582h348v-132h-505v714z" />
    <glyph glyph-name="lcaron" unicode="&#x13e;" horiz-adv-x="363" 
d="M344 572h-98l35 142h148zM58 714h142v-714h-142v714z" />
    <glyph glyph-name="Ldot" unicode="&#x13f;" 
d="M343 518h135v-117h-135v117zM69 714h157v-582h348v-132h-505v714z" />
    <glyph glyph-name="ldot" unicode="&#x140;" horiz-adv-x="435" 
d="M260 518h135v-117h-135v117zM58 714h142v-714h-142v714z" />
    <glyph glyph-name="Lslash" unicode="&#x141;" 
d="M69 214l-80 -56v112l80 56v388h157v-278l211 148v-112l-211 -148v-192h348v-132h-505v214z" />
    <glyph glyph-name="lslash" unicode="&#x142;" horiz-adv-x="258" 
d="M58 286l-67 -53v102l67 53v326h142v-214l67 53v-102l-67 -53v-398h-142v286z" />
    <glyph glyph-name="Nacute" unicode="&#x143;" horiz-adv-x="741" 
d="M406 779h-99l96 142h157zM69 714h156l298 -479h2v479h147v-714h-157l-297 478h-2v-478h-147v714z" />
    <glyph glyph-name="nacute" unicode="&#x144;" 
d="M331 589h-99l96 142h157zM54 517h135v-72h3q27 44 70 65t88 21q57 0 93.5 -15.5t57.5 -43t29.5 -67t8.5 -87.5v-318h-142v292q0 64 -20.5 95.5t-70.5 31.5q-58 0 -84 -34.5t-26 -113.5v-271h-142v517z" />
    <glyph glyph-name="uni0145" unicode="&#x145;" horiz-adv-x="741" 
d="M300 -50h145v-73q0 -29 -11 -49.5t-28.5 -29.5t-41.5 -12t-54 -3v37q24 2 38 10t19 27h-67v93zM69 714h156l298 -479h2v479h147v-714h-157l-297 478h-2v-478h-147v714z" />
    <glyph glyph-name="uni0146" unicode="&#x146;" 
d="M221 -50h145v-73q0 -29 -11 -49.5t-28.5 -29.5t-41.5 -12t-54 -3v37q24 2 38 10t19 27h-67v93zM54 517h135v-72h3q27 44 70 65t88 21q57 0 93.5 -15.5t57.5 -43t29.5 -67t8.5 -87.5v-318h-142v292q0 64 -20.5 95.5t-70.5 31.5q-58 0 -84 -34.5t-26 -113.5v-271h-142v517z
" />
    <glyph glyph-name="Ncaron" unicode="&#x147;" horiz-adv-x="741" 
d="M430 779h-130l-111 142h112l64 -81l65 81h110zM69 714h156l298 -479h2v479h147v-714h-157l-297 478h-2v-478h-147v714z" />
    <glyph glyph-name="ncaron" unicode="&#x148;" 
d="M364 589h-130l-111 142h112l64 -81l65 81h110zM54 517h135v-72h3q27 44 70 65t88 21q57 0 93.5 -15.5t57.5 -43t29.5 -67t8.5 -87.5v-318h-142v292q0 64 -20.5 95.5t-70.5 31.5q-58 0 -84 -34.5t-26 -113.5v-271h-142v517z" />
    <glyph glyph-name="napostrophe" unicode="&#x149;" horiz-adv-x="605" 
d="M-11 807h145v-73q0 -29 -11 -49.5t-28.5 -29.5t-41.5 -12t-54 -3v37q24 2 38 10t19 27h-67v93zM66 517h135v-72h3q27 44 70 65t88 21q57 0 93.5 -15.5t57.5 -43t29.5 -67t8.5 -87.5v-318h-142v292q0 64 -20.5 95.5t-70.5 31.5q-58 0 -84 -34.5t-26 -113.5v-271h-142v517z
" />
    <glyph glyph-name="Omacron" unicode="&#x14c;" horiz-adv-x="778" 
d="M204 884h373v-75h-373v75zM195 354q0 -45 10.5 -87.5t33.5 -76.5t60 -54.5t90 -20.5t90 20.5t60 54.5t33.5 76.5t10.5 87.5q0 47 -10.5 91t-33.5 78.5t-60 55t-90 20.5t-90 -20.5t-60 -55t-33.5 -78.5t-10.5 -91zM38 354q0 79 24 148t69 120t110 80t148 29t148 -29
t110 -80t69 -120t24 -148q0 -77 -24 -145t-69 -118t-110 -79t-148 -29t-148 29t-110 79t-69 118t-24 145z" />
    <glyph glyph-name="omacron" unicode="&#x14d;" horiz-adv-x="611" 
d="M121 694h373v-75h-373v75zM180 258q0 -31 6 -60.5t20.5 -53t38.5 -37.5t60 -14t60.5 14t39 37.5t20.5 53t6 60.5t-6 61t-20.5 53t-39 37.5t-60.5 14.5t-60 -14.5t-38.5 -37.5t-20.5 -53t-6 -61zM38 258q0 62 19 112.5t54 86t84 55t110 19.5t110.5 -19.5t84.5 -55t54 -86
t19 -112.5t-19 -112t-54 -85.5t-84.5 -55t-110.5 -19.5t-110 19.5t-84 55t-54 85.5t-19 112z" />
    <glyph glyph-name="Obreve" unicode="&#x14e;" horiz-adv-x="778" 
d="M292 923q3 -20 13 -34t24.5 -22t30.5 -11.5t31 -3.5q45 0 73 16.5t37 54.5h63q-10 -77 -57 -111.5t-121 -34.5q-72 0 -112.5 37t-46.5 109h65zM195 354q0 -45 10.5 -87.5t33.5 -76.5t60 -54.5t90 -20.5t90 20.5t60 54.5t33.5 76.5t10.5 87.5q0 47 -10.5 91t-33.5 78.5
t-60 55t-90 20.5t-90 -20.5t-60 -55t-33.5 -78.5t-10.5 -91zM38 354q0 79 24 148t69 120t110 80t148 29t148 -29t110 -80t69 -120t24 -148q0 -77 -24 -145t-69 -118t-110 -79t-148 -29t-148 29t-110 79t-69 118t-24 145z" />
    <glyph glyph-name="obreve" unicode="&#x14f;" horiz-adv-x="611" 
d="M208 733q3 -20 13 -34t24.5 -22t30.5 -11.5t31 -3.5q45 0 73 16.5t37 54.5h63q-10 -77 -57 -111.5t-121 -34.5q-72 0 -112.5 37t-46.5 109h65zM180 258q0 -31 6 -60.5t20.5 -53t38.5 -37.5t60 -14t60.5 14t39 37.5t20.5 53t6 60.5t-6 61t-20.5 53t-39 37.5t-60.5 14.5
t-60 -14.5t-38.5 -37.5t-20.5 -53t-6 -61zM38 258q0 62 19 112.5t54 86t84 55t110 19.5t110.5 -19.5t84.5 -55t54 -86t19 -112.5t-19 -112t-54 -85.5t-84.5 -55t-110.5 -19.5t-110 19.5t-84 55t-54 85.5t-19 112z" />
    <glyph glyph-name="Ohungarumlaut" unicode="&#x150;" horiz-adv-x="778" 
d="M540 779h-99l91 142h157zM333 779h-99l91 142h157zM195 354q0 -45 10.5 -87.5t33.5 -76.5t60 -54.5t90 -20.5t90 20.5t60 54.5t33.5 76.5t10.5 87.5q0 47 -10.5 91t-33.5 78.5t-60 55t-90 20.5t-90 -20.5t-60 -55t-33.5 -78.5t-10.5 -91zM38 354q0 79 24 148t69 120
t110 80t148 29t148 -29t110 -80t69 -120t24 -148q0 -77 -24 -145t-69 -118t-110 -79t-148 -29t-148 29t-110 79t-69 118t-24 145z" />
    <glyph glyph-name="ohungarumlaut" unicode="&#x151;" horiz-adv-x="611" 
d="M457 589h-99l91 142h157zM250 589h-99l91 142h157zM180 258q0 -31 6 -60.5t20.5 -53t38.5 -37.5t60 -14t60.5 14t39 37.5t20.5 53t6 60.5t-6 61t-20.5 53t-39 37.5t-60.5 14.5t-60 -14.5t-38.5 -37.5t-20.5 -53t-6 -61zM38 258q0 62 19 112.5t54 86t84 55t110 19.5
t110.5 -19.5t84.5 -55t54 -86t19 -112.5t-19 -112t-54 -85.5t-84.5 -55t-110.5 -19.5t-110 19.5t-84 55t-54 85.5t-19 112z" />
    <glyph glyph-name="OE" unicode="&#x152;" horiz-adv-x="1093" 
d="M538 448q0 34 -11.5 61.5t-32 47.5t-49 31t-61.5 11q-52 0 -88 -21.5t-58.5 -56t-32.5 -78t-10 -88.5q0 -44 10 -87t32.5 -77t58 -55t85.5 -21q72 0 114.5 45t42.5 118v170zM544 54h-2q-32 -35 -78.5 -53t-93.5 -18q-79 0 -141 30t-104.5 81t-64.5 118t-22 141
t22.5 142.5t65.5 121t105.5 83.5t141.5 31q23 0 47 -3.5t46 -11.5t41.5 -21t34.5 -32h2v51h500v-132h-354v-153h324v-122h-324v-175h361v-132h-507v54z" />
    <glyph glyph-name="oe" unicode="&#x153;" horiz-adv-x="926" 
d="M528 224q0 -56 30.5 -93.5t92.5 -37.5q39 0 64.5 18t39.5 53h138q-25 -85 -89.5 -131.5t-152.5 -46.5q-54 0 -105.5 20t-81.5 68q-14 -24 -34.5 -40.5t-45 -27t-51 -15.5t-52.5 -5q-60 0 -105.5 22.5t-76 60t-46 87.5t-15.5 105q0 57 18 106.5t51 85.5t80 57t105 21
q25 0 51 -4.5t49.5 -14t43.5 -25.5t34 -38q13 20 33 35t43.5 25.5t48.5 16t48 5.5q69 0 117 -25t78.5 -67t44.5 -97.5t14 -117.5h-369zM290 93q36 0 58 15.5t34.5 40t17 54t4.5 57.5q0 26 -4 55t-16 53t-33.5 40t-57.5 16q-33 0 -54.5 -15t-34.5 -39t-18.5 -54t-5.5 -60
q0 -27 5 -55.5t18 -52.5t34 -39.5t53 -15.5zM755 314q-2 50 -30 80t-85 30q-54 0 -82 -32t-30 -78h227z" />
    <glyph glyph-name="Racute" unicode="&#x154;" horiz-adv-x="722" 
d="M358 779h-99l96 142h157zM226 391h172q53 0 80.5 24t27.5 78q0 52 -27.5 75.5t-80.5 23.5h-172v-201zM69 714h385q48 0 86.5 -15.5t66 -42.5t42 -63t14.5 -76q0 -63 -26.5 -109t-86.5 -70v-2q29 -8 48 -24.5t31 -39.5t17.5 -49.5t7.5 -53.5q1 -17 2 -40t3.5 -46.5
t8 -45.5t16.5 -37h-157q-7 17 -10.5 37.5t-6 43t-4 46t-4.5 44.5q-8 56 -34 82t-85 26h-157v-279h-157v714z" />
    <glyph glyph-name="racute" unicode="&#x155;" horiz-adv-x="389" 
d="M187 589h-99l96 142h157zM54 517h135v-96h2q10 24 27 44.5t39 35t47.5 22.5t51.5 8q16 0 31 -5v-132q-10 2 -24 3.5t-27 1.5q-39 0 -66 -13t-43.5 -35.5t-23.5 -53t-7 -64.5v-233h-142v517z" />
    <glyph glyph-name="uni0156" unicode="&#x156;" horiz-adv-x="722" 
d="M298 -50h145v-73q0 -29 -11 -49.5t-28.5 -29.5t-41.5 -12t-54 -3v37q24 2 38 10t19 27h-67v93zM226 391h172q53 0 80.5 24t27.5 78q0 52 -27.5 75.5t-80.5 23.5h-172v-201zM69 714h385q48 0 86.5 -15.5t66 -42.5t42 -63t14.5 -76q0 -63 -26.5 -109t-86.5 -70v-2
q29 -8 48 -24.5t31 -39.5t17.5 -49.5t7.5 -53.5q1 -17 2 -40t3.5 -46.5t8 -45.5t16.5 -37h-157q-7 17 -10.5 37.5t-6 43t-4 46t-4.5 44.5q-8 56 -34 82t-85 26h-157v-279h-157v714z" />
    <glyph glyph-name="uni0157" unicode="&#x157;" horiz-adv-x="389" 
d="M56 -50h145v-73q0 -29 -11 -49.5t-28.5 -29.5t-41.5 -12t-54 -3v37q24 2 38 10t19 27h-67v93zM54 517h135v-96h2q10 24 27 44.5t39 35t47.5 22.5t51.5 8q16 0 31 -5v-132q-10 2 -24 3.5t-27 1.5q-39 0 -66 -13t-43.5 -35.5t-23.5 -53t-7 -64.5v-233h-142v517z" />
    <glyph glyph-name="Rcaron" unicode="&#x158;" horiz-adv-x="722" 
d="M402 779h-130l-111 142h112l64 -81l65 81h110zM226 391h172q53 0 80.5 24t27.5 78q0 52 -27.5 75.5t-80.5 23.5h-172v-201zM69 714h385q48 0 86.5 -15.5t66 -42.5t42 -63t14.5 -76q0 -63 -26.5 -109t-86.5 -70v-2q29 -8 48 -24.5t31 -39.5t17.5 -49.5t7.5 -53.5
q1 -17 2 -40t3.5 -46.5t8 -45.5t16.5 -37h-157q-7 17 -10.5 37.5t-6 43t-4 46t-4.5 44.5q-8 56 -34 82t-85 26h-157v-279h-157v714z" />
    <glyph glyph-name="rcaron" unicode="&#x159;" horiz-adv-x="389" 
d="M278 589h-130l-111 142h112l64 -81l65 81h110zM54 517h135v-96h2q10 24 27 44.5t39 35t47.5 22.5t51.5 8q16 0 31 -5v-132q-10 2 -24 3.5t-27 1.5q-39 0 -66 -13t-43.5 -35.5t-23.5 -53t-7 -64.5v-233h-142v517z" />
    <glyph glyph-name="Sacute" unicode="&#x15a;" horiz-adv-x="649" 
d="M368 779h-99l96 142h157zM176 237q0 -36 13 -61t34.5 -40.5t50 -23t60.5 -7.5q21 0 45 3.5t45 13.5t35 27.5t14 44.5q0 29 -18.5 47t-48.5 30.5t-68 21t-77 19.5q-40 10 -78 24.5t-68 37.5t-48.5 57t-18.5 84q0 55 23.5 95.5t61.5 67.5t86 40t96 13q56 0 107.5 -12.5
t91.5 -40.5t63.5 -71.5t23.5 -105.5h-152q-2 32 -13.5 53t-30.5 33t-44 17t-53 5q-19 0 -38 -4t-34.5 -14t-25.5 -25.5t-10 -37.5q0 -21 8 -34t31.5 -23.5t65 -22t108.5 -28.5q13 -3 34 -8.5t44.5 -15t47 -24.5t43 -37t31.5 -52.5t12 -70.5q0 -49 -19 -91t-56.5 -72.5
t-93 -48t-128.5 -17.5q-59 0 -114.5 15t-97.5 46t-67.5 79t-24.5 114h152z" />
    <glyph glyph-name="sacute" unicode="&#x15b;" horiz-adv-x="537" 
d="M311 589h-99l96 142h157zM164 168q0 -23 9.5 -39.5t24.5 -27t34.5 -15.5t40.5 -5q15 0 31.5 3.5t30 11t22.5 20t9 31.5q0 16 -11 27.5t-31.5 20.5t-50.5 16.5t-68 15.5q-31 7 -60.5 16.5t-52.5 25t-37 39t-14 57.5q0 49 19.5 81.5t51.5 51t72 26t82 7.5t81.5 -8t70.5 -27
t51.5 -50.5t24.5 -79.5h-135q-3 41 -31 55.5t-66 14.5q-12 0 -26 -1.5t-25.5 -6.5t-19.5 -14.5t-8 -25.5q0 -19 14 -31t36.5 -19.5t51.5 -13.5t59 -13q31 -7 60.5 -17t52.5 -26.5t37 -41t14 -60.5q0 -51 -20.5 -85.5t-53.5 -55.5t-75.5 -30t-86.5 -9q-45 0 -88 9t-76.5 30.5
t-55 56.5t-23.5 86h135z" />
    <glyph glyph-name="Scircumflex" unicode="&#x15c;" horiz-adv-x="649" 
d="M264 921h130l110 -142h-117l-62 81l-64 -81h-108zM176 237q0 -36 13 -61t34.5 -40.5t50 -23t60.5 -7.5q21 0 45 3.5t45 13.5t35 27.5t14 44.5q0 29 -18.5 47t-48.5 30.5t-68 21t-77 19.5q-40 10 -78 24.5t-68 37.5t-48.5 57t-18.5 84q0 55 23.5 95.5t61.5 67.5t86 40
t96 13q56 0 107.5 -12.5t91.5 -40.5t63.5 -71.5t23.5 -105.5h-152q-2 32 -13.5 53t-30.5 33t-44 17t-53 5q-19 0 -38 -4t-34.5 -14t-25.5 -25.5t-10 -37.5q0 -21 8 -34t31.5 -23.5t65 -22t108.5 -28.5q13 -3 34 -8.5t44.5 -15t47 -24.5t43 -37t31.5 -52.5t12 -70.5
q0 -49 -19 -91t-56.5 -72.5t-93 -48t-128.5 -17.5q-59 0 -114.5 15t-97.5 46t-67.5 79t-24.5 114h152z" />
    <glyph glyph-name="scircumflex" unicode="&#x15d;" horiz-adv-x="537" 
d="M211 731h130l110 -142h-117l-62 81l-64 -81h-108zM164 168q0 -23 9.5 -39.5t24.5 -27t34.5 -15.5t40.5 -5q15 0 31.5 3.5t30 11t22.5 20t9 31.5q0 16 -11 27.5t-31.5 20.5t-50.5 16.5t-68 15.5q-31 7 -60.5 16.5t-52.5 25t-37 39t-14 57.5q0 49 19.5 81.5t51.5 51t72 26
t82 7.5t81.5 -8t70.5 -27t51.5 -50.5t24.5 -79.5h-135q-3 41 -31 55.5t-66 14.5q-12 0 -26 -1.5t-25.5 -6.5t-19.5 -14.5t-8 -25.5q0 -19 14 -31t36.5 -19.5t51.5 -13.5t59 -13q31 -7 60.5 -17t52.5 -26.5t37 -41t14 -60.5q0 -51 -20.5 -85.5t-53.5 -55.5t-75.5 -30
t-86.5 -9q-45 0 -88 9t-76.5 30.5t-55 56.5t-23.5 86h135z" />
    <glyph glyph-name="Scedilla" unicode="&#x15e;" horiz-adv-x="649" 
d="M218 -147q16 -7 37 -12.5t47 -5.5q18 0 29 8t11 26q0 19 -11.5 25.5t-28.5 6.5q-21 0 -40 -7l-21 24l48 67q-39 3 -76 13q-55 15 -97 46t-67.5 79t-24.5 114h152q0 -36 13 -61t34.5 -40.5t50 -23t60.5 -7.5q21 0 45 3.5t45 13.5t35 27.5t14 44.5q0 29 -18.5 47
t-48.5 30.5t-68 21t-77 19.5q-40 10 -78 24.5t-68 37.5t-48.5 57t-18.5 84q0 55 23.5 95.5t61.5 67.5t86 40t96 13q56 0 107.5 -12.5t91.5 -40.5t63.5 -71.5t23.5 -105.5h-152q-2 32 -13.5 53t-30.5 33t-44 17t-53 5q-19 0 -38 -4t-34.5 -14t-25.5 -25.5t-10 -37.5
q0 -21 8 -34t31.5 -23.5t65 -22t108.5 -28.5q13 -3 34 -8.5t44.5 -15t47 -24.5t43 -37t31.5 -52.5t12 -70.5q0 -49 -19 -91t-56.5 -72.5t-93.5 -48.5q-52 -16 -120 -17l-26 -35l1 -2q18 7 35 7t33.5 -4t29.5 -12.5t21 -22t8 -31.5q0 -29 -10 -48.5t-27 -31t-37.5 -16
t-42.5 -4.5q-24 0 -41 1.5t-30.5 4.5t-26 7t-26.5 9z" />
    <glyph glyph-name="scedilla" unicode="&#x15f;" horiz-adv-x="537" 
d="M165 -147q16 -7 37 -12.5t47 -5.5q18 0 29 8t11 26q0 19 -11.5 25.5t-28.5 6.5q-21 0 -40 -7l-21 24l50 69q-28 3 -54 8q-43 9 -76.5 30.5t-55 56.5t-23.5 86h135q0 -23 9.5 -39.5t24.5 -27t34.5 -15.5t40.5 -5q15 0 31.5 3.5t30 11t22.5 20t9 31.5q0 16 -11 27.5
t-31.5 20.5t-50.5 16.5t-68 15.5q-31 7 -60.5 16.5t-52.5 25t-37 39t-14 57.5q0 49 19.5 81.5t51.5 51t72 26t82 7.5t81.5 -8t70.5 -27t51.5 -50.5t24.5 -79.5h-135q-3 41 -31 55.5t-66 14.5q-12 0 -26 -1.5t-25.5 -6.5t-19.5 -14.5t-8 -25.5q0 -19 14 -31t36.5 -19.5
t51.5 -13.5t59 -13q31 -7 60.5 -17t52.5 -26.5t37 -41t14 -60.5q0 -51 -20.5 -85.5t-53.5 -55.5t-76 -30q-36 -7 -73 -9l-28 -38l1 -2q18 7 35 7t33.5 -4t29.5 -12.5t21 -22t8 -31.5q0 -29 -10 -48.5t-27 -31t-37.5 -16t-42.5 -4.5q-24 0 -41 1.5t-30.5 4.5t-26 7t-26.5 9z
" />
    <glyph glyph-name="Scaron" unicode="&#x160;" horiz-adv-x="649" 
d="M393 779h-130l-111 142h112l64 -81l65 81h110zM176 237q0 -36 13 -61t34.5 -40.5t50 -23t60.5 -7.5q21 0 45 3.5t45 13.5t35 27.5t14 44.5q0 29 -18.5 47t-48.5 30.5t-68 21t-77 19.5q-40 10 -78 24.5t-68 37.5t-48.5 57t-18.5 84q0 55 23.5 95.5t61.5 67.5t86 40t96 13
q56 0 107.5 -12.5t91.5 -40.5t63.5 -71.5t23.5 -105.5h-152q-2 32 -13.5 53t-30.5 33t-44 17t-53 5q-19 0 -38 -4t-34.5 -14t-25.5 -25.5t-10 -37.5q0 -21 8 -34t31.5 -23.5t65 -22t108.5 -28.5q13 -3 34 -8.5t44.5 -15t47 -24.5t43 -37t31.5 -52.5t12 -70.5q0 -49 -19 -91
t-56.5 -72.5t-93 -48t-128.5 -17.5q-59 0 -114.5 15t-97.5 46t-67.5 79t-24.5 114h152z" />
    <glyph glyph-name="scaron" unicode="&#x161;" horiz-adv-x="537" 
d="M339 589h-130l-111 142h112l64 -81l65 81h110zM164 168q0 -23 9.5 -39.5t24.5 -27t34.5 -15.5t40.5 -5q15 0 31.5 3.5t30 11t22.5 20t9 31.5q0 16 -11 27.5t-31.5 20.5t-50.5 16.5t-68 15.5q-31 7 -60.5 16.5t-52.5 25t-37 39t-14 57.5q0 49 19.5 81.5t51.5 51t72 26
t82 7.5t81.5 -8t70.5 -27t51.5 -50.5t24.5 -79.5h-135q-3 41 -31 55.5t-66 14.5q-12 0 -26 -1.5t-25.5 -6.5t-19.5 -14.5t-8 -25.5q0 -19 14 -31t36.5 -19.5t51.5 -13.5t59 -13q31 -7 60.5 -17t52.5 -26.5t37 -41t14 -60.5q0 -51 -20.5 -85.5t-53.5 -55.5t-75.5 -30
t-86.5 -9q-45 0 -88 9t-76.5 30.5t-55 56.5t-23.5 86h135z" />
    <glyph glyph-name="uni0162" unicode="&#x162;" horiz-adv-x="611" 
d="M232 -50h145v-73q0 -29 -11 -49.5t-28.5 -29.5t-41.5 -12t-54 -3v37q24 2 38 10t19 27h-67v93zM227 582h-214v132h585v-132h-214v-582h-157v582z" />
    <glyph glyph-name="uni0163" unicode="&#x163;" horiz-adv-x="352" 
d="M140 -50h145v-73q0 -29 -11 -49.5t-28.5 -29.5t-41.5 -12t-54 -3v37q24 2 38 10t19 27h-67v93zM234 517h104v-95h-104v-256q0 -36 12 -48t48 -12q24 0 44 4v-111q-18 -3 -40 -4t-43 -1q-33 0 -62.5 4.5t-52 18t-35.5 37.5t-13 63v305h-86v95h86v155h142v-155z" />
    <glyph glyph-name="Tcaron" unicode="&#x164;" horiz-adv-x="611" 
d="M370 779h-130l-111 142h112l64 -81l65 81h110zM227 582h-214v132h585v-132h-214v-582h-157v582z" />
    <glyph glyph-name="tcaron" unicode="&#x165;" horiz-adv-x="444" 
d="M234 517h104v-95h-104v-256q0 -36 12 -48t48 -12q24 0 44 4v-111q-18 -3 -40 -4t-43 -1q-33 0 -62.5 4.5t-52 18t-35.5 37.5t-13 63v305h-86v95h86v155h142v-155zM425 572h-98l35 142h148z" />
    <glyph glyph-name="Tbar" unicode="&#x166;" horiz-adv-x="611" 
d="M72 467h155v115h-214v132h585v-132h-214v-115h161v-75h-161v-392h-157v392h-155v75z" />
    <glyph glyph-name="tbar" unicode="&#x167;" horiz-adv-x="352" 
d="M-8 346h100v76h-86v95h86v155h142v-155h104v-95h-104v-76h112v-75h-112v-105q0 -36 12 -48t48 -12q24 0 44 4v-111q-18 -3 -40 -4t-43 -1q-33 0 -62.5 4.5t-52 18t-35.5 37.5t-13 63v154h-100v75z" />
    <glyph glyph-name="Utilde" unicode="&#x168;" horiz-adv-x="741" 
d="M557 911q-4 -23 -11 -41.5t-19 -34.5t-31.5 -27t-50.5 -11q-19 0 -34.5 3t-46.5 14q-25 8 -39 12.5t-29 4.5q-19 0 -29.5 -11.5t-15.5 -30.5h-61q4 23 12 44t22.5 38.5t36.5 28.5t46 11q15 0 30 -3.5t42 -14.5q17 -6 33.5 -11.5t31.5 -5.5q18 0 28 7.5t16 27.5h69z
M675 270q0 -145 -81 -216t-224 -71q-145 0 -224.5 70.5t-79.5 216.5v444h157v-444q0 -29 5 -57t21 -50t44.5 -35t76.5 -13q84 0 116 37.5t32 117.5v444h157v-444z" />
    <glyph glyph-name="utilde" unicode="&#x169;" 
d="M482 721q-4 -23 -11 -41.5t-19 -34.5t-31.5 -27t-50.5 -11q-19 0 -34.5 3t-46.5 14q-25 8 -39 12.5t-29 4.5q-19 0 -29.5 -11.5t-15.5 -30.5h-61q4 23 12 44t22.5 38.5t36.5 28.5t46 11q15 0 30 -3.5t42 -14.5q17 -6 33.5 -11.5t31.5 -5.5q18 0 28 7.5t16 27.5h69zM539 0
h-135v72h-3q-27 -44 -70 -65t-88 -21q-57 0 -93.5 15.5t-57.5 43t-29.5 67t-8.5 87.5v318h142v-292q0 -64 20.5 -95.5t70.5 -31.5q58 0 84 34.5t26 113.5v271h142v-517z" />
    <glyph glyph-name="Umacron" unicode="&#x16a;" horiz-adv-x="741" 
d="M186 884h373v-75h-373v75zM675 270q0 -145 -81 -216t-224 -71q-145 0 -224.5 70.5t-79.5 216.5v444h157v-444q0 -29 5 -57t21 -50t44.5 -35t76.5 -13q84 0 116 37.5t32 117.5v444h157v-444z" />
    <glyph glyph-name="umacron" unicode="&#x16b;" 
d="M113 694h373v-75h-373v75zM539 0h-135v72h-3q-27 -44 -70 -65t-88 -21q-57 0 -93.5 15.5t-57.5 43t-29.5 67t-8.5 87.5v318h142v-292q0 -64 20.5 -95.5t70.5 -31.5q58 0 84 34.5t26 113.5v271h142v-517z" />
    <glyph glyph-name="Ubreve" unicode="&#x16c;" horiz-adv-x="741" 
d="M267 923q3 -20 13 -34t24.5 -22t30.5 -11.5t31 -3.5q45 0 73 16.5t37 54.5h63q-10 -77 -57 -111.5t-121 -34.5q-72 0 -112.5 37t-46.5 109h65zM675 270q0 -145 -81 -216t-224 -71q-145 0 -224.5 70.5t-79.5 216.5v444h157v-444q0 -29 5 -57t21 -50t44.5 -35t76.5 -13
q84 0 116 37.5t32 117.5v444h157v-444z" />
    <glyph glyph-name="ubreve" unicode="&#x16d;" 
d="M196 733q3 -20 13 -34t24.5 -22t30.5 -11.5t31 -3.5q45 0 73 16.5t37 54.5h63q-10 -77 -57 -111.5t-121 -34.5q-72 0 -112.5 37t-46.5 109h65zM539 0h-135v72h-3q-27 -44 -70 -65t-88 -21q-57 0 -93.5 15.5t-57.5 43t-29.5 67t-8.5 87.5v318h142v-292q0 -64 20.5 -95.5
t70.5 -31.5q58 0 84 34.5t26 113.5v271h142v-517z" />
    <glyph glyph-name="Uring" unicode="&#x16e;" horiz-adv-x="741" 
d="M247 864q0 25 9.5 47.5t26 39t39 26t47.5 9.5t47.5 -9.5t39.5 -26t26.5 -39t9.5 -47.5t-9.5 -47.5t-26.5 -39t-39.5 -25.5t-47.5 -9t-47.5 9t-39 25.5t-26 39t-9.5 47.5zM306 864q0 -29 17 -48.5t46 -19.5t46.5 19.5t17.5 48.5t-17.5 48.5t-46.5 19.5t-46 -19.5
t-17 -48.5zM675 270q0 -145 -81 -216t-224 -71q-145 0 -224.5 70.5t-79.5 216.5v444h157v-444q0 -29 5 -57t21 -50t44.5 -35t76.5 -13q84 0 116 37.5t32 117.5v444h157v-444z" />
    <glyph glyph-name="uring" unicode="&#x16f;" 
d="M176 684q0 25 9.5 47.5t26 39t39 26t47.5 9.5t47.5 -9.5t39.5 -26t26.5 -39t9.5 -47.5t-9.5 -47.5t-26.5 -39t-39.5 -25.5t-47.5 -9t-47.5 9t-39 25.5t-26 39t-9.5 47.5zM235 684q0 -29 17 -48.5t46 -19.5t46.5 19.5t17.5 48.5t-17.5 48.5t-46.5 19.5t-46 -19.5
t-17 -48.5zM539 0h-135v72h-3q-27 -44 -70 -65t-88 -21q-57 0 -93.5 15.5t-57.5 43t-29.5 67t-8.5 87.5v318h142v-292q0 -64 20.5 -95.5t70.5 -31.5q58 0 84 34.5t26 113.5v271h142v-517z" />
    <glyph glyph-name="Uhungarumlaut" unicode="&#x170;" horiz-adv-x="741" 
d="M518 779h-99l91 142h157zM311 779h-99l91 142h157zM675 270q0 -145 -81 -216t-224 -71q-145 0 -224.5 70.5t-79.5 216.5v444h157v-444q0 -29 5 -57t21 -50t44.5 -35t76.5 -13q84 0 116 37.5t32 117.5v444h157v-444z" />
    <glyph glyph-name="uhungarumlaut" unicode="&#x171;" 
d="M446 589h-99l91 142h157zM239 589h-99l91 142h157zM539 0h-135v72h-3q-27 -44 -70 -65t-88 -21q-57 0 -93.5 15.5t-57.5 43t-29.5 67t-8.5 87.5v318h142v-292q0 -64 20.5 -95.5t70.5 -31.5q58 0 84 34.5t26 113.5v271h142v-517z" />
    <glyph glyph-name="Uogonek" unicode="&#x172;" horiz-adv-x="741" 
d="M491 -149q-29 -37 -61 -52.5t-72 -15.5q-9 0 -27 2t-36 11t-31 28t-13 41q0 16 3 26.5t13 26.5t33 37q15 13 38 29q-122 7 -193 69q-79 71 -79 217v444h157v-444q0 -29 5 -57t21 -50t44.5 -35t76.5 -13q84 0 116 37.5t32 117.5v444h157v-444q0 -145 -81 -216
q-69 -60 -181 -69q-35 -33 -49 -54q-17 -27 -17 -48q0 -20 12 -30t27 -10q16 0 28 6t29 24z" />
    <glyph glyph-name="uogonek" unicode="&#x173;" 
d="M519 -149q-27 -37 -56 -52.5t-65 -15.5q-9 0 -25 2t-32.5 11t-28.5 28t-12 41q0 16 3 26.5t12 26.5t30 36.5t59 45.5v72h-3q-27 -44 -70 -65t-88 -21q-57 0 -93.5 15.5t-57.5 43t-29.5 67t-8.5 87.5v318h142v-292q0 -64 20.5 -95.5t70.5 -31.5q58 0 84 34.5t26 113.5v271
h142v-517h-76q-44 -43 -59.5 -69.5t-15.5 -47.5q0 -20 10.5 -30t24.5 -10q15 0 25.5 6t26.5 24z" />
    <glyph glyph-name="Wcircumflex" unicode="&#x174;" horiz-adv-x="944" 
d="M412 921h130l110 -142h-117l-62 81l-64 -81h-108zM749 0h-156l-121 486h-2l-119 -486h-159l-189 714h157l113 -486h2l124 486h147l122 -492h2l117 492h154z" />
    <glyph glyph-name="wcircumflex" unicode="&#x175;" horiz-adv-x="814" 
d="M346 731h130l110 -142h-117l-62 81l-64 -81h-108zM645 0h-146l-92 347h-2l-88 -347h-147l-164 517h150l95 -351h2l86 351h138l88 -350h2l95 350h146z" />
    <glyph glyph-name="Ycircumflex" unicode="&#x176;" horiz-adv-x="667" 
d="M275 921h130l110 -142h-117l-62 81l-64 -81h-108zM254 278l-263 436h177l167 -282l166 282h175l-265 -440v-274h-157v278z" />
    <glyph glyph-name="ycircumflex" unicode="&#x177;" horiz-adv-x="519" 
d="M203 731h130l110 -142h-117l-62 81l-64 -81h-108zM309 -65q-23 -62 -64 -89.5t-114 -27.5q-22 0 -43.5 1.5t-43.5 3.5v117q20 -2 41 -4t42 -1q18 2 30.5 11.5t18.5 23.5t6 30q0 17 -6 32l-182 485h152l117 -354h2l113 354h147z" />
    <glyph glyph-name="Ydieresis" unicode="&#x178;" horiz-adv-x="667" 
d="M165 905h135v-117h-135v117zM371 905h135v-117h-135v117zM254 278l-263 436h177l167 -282l166 282h175l-265 -440v-274h-157v278z" />
    <glyph glyph-name="Zacute" unicode="&#x179;" horiz-adv-x="648" 
d="M367 779h-99l96 142h157zM23 124l383 458h-353v132h562v-124l-383 -458h393v-132h-602v124z" />
    <glyph glyph-name="zacute" unicode="&#x17a;" horiz-adv-x="519" 
d="M306 589h-99l96 142h157zM22 107l269 303h-249v107h436v-107l-269 -303h288v-107h-475v107z" />
    <glyph glyph-name="Zdotaccent" unicode="&#x17b;" horiz-adv-x="648" 
d="M267 905h135v-117h-135v117zM23 124l383 458h-353v132h562v-124l-383 -458h393v-132h-602v124z" />
    <glyph glyph-name="zdotaccent" unicode="&#x17c;" horiz-adv-x="519" 
d="M197 715h135v-117h-135v117zM22 107l269 303h-249v107h436v-107l-269 -303h288v-107h-475v107z" />
    <glyph glyph-name="Zcaron" unicode="&#x17d;" horiz-adv-x="648" 
d="M397 779h-130l-111 142h112l64 -81l65 81h110zM23 124l383 458h-353v132h562v-124l-383 -458h393v-132h-602v124z" />
    <glyph glyph-name="zcaron" unicode="&#x17e;" horiz-adv-x="519" 
d="M328 589h-130l-111 142h112l64 -81l65 81h110zM22 107l269 303h-249v107h436v-107l-269 -303h288v-107h-475v107z" />
    <glyph glyph-name="florin" unicode="&#x192;" horiz-adv-x="556" 
d="M14 -60q19 -3 40 -3q38 -1 52 17.5t20 53.5l63 329h-92l18 95h91l24 127q9 47 24 80t39 53.5t59 29.5t84 9q40 0 75 -7l-18 -107q-11 5 -20.5 6t-19.5 1q-39 0 -54.5 -15t-21.5 -47l-25 -130h98l-16 -95h-100l-56 -310q-9 -50 -22 -87t-36 -61.5t-59.5 -36.5t-91.5 -12
q-19 0 -36 0.5t-38 2.5z" />
    <glyph glyph-name="uni0218" unicode="&#x218;" horiz-adv-x="649" 
d="M249 -50h145v-73q0 -29 -11 -49.5t-28.5 -29.5t-41.5 -12t-54 -3v37q24 2 38 10t19 27h-67v93zM176 237q0 -36 13 -61t34.5 -40.5t50 -23t60.5 -7.5q21 0 45 3.5t45 13.5t35 27.5t14 44.5q0 29 -18.5 47t-48.5 30.5t-68 21t-77 19.5q-40 10 -78 24.5t-68 37.5t-48.5 57
t-18.5 84q0 55 23.5 95.5t61.5 67.5t86 40t96 13q56 0 107.5 -12.5t91.5 -40.5t63.5 -71.5t23.5 -105.5h-152q-2 32 -13.5 53t-30.5 33t-44 17t-53 5q-19 0 -38 -4t-34.5 -14t-25.5 -25.5t-10 -37.5q0 -21 8 -34t31.5 -23.5t65 -22t108.5 -28.5q13 -3 34 -8.5t44.5 -15
t47 -24.5t43 -37t31.5 -52.5t12 -70.5q0 -49 -19 -91t-56.5 -72.5t-93 -48t-128.5 -17.5q-59 0 -114.5 15t-97.5 46t-67.5 79t-24.5 114h152z" />
    <glyph glyph-name="uni0219" unicode="&#x219;" horiz-adv-x="537" 
d="M199 -50h145v-73q0 -29 -11 -49.5t-28.5 -29.5t-41.5 -12t-54 -3v37q24 2 38 10t19 27h-67v93zM164 168q0 -23 9.5 -39.5t24.5 -27t34.5 -15.5t40.5 -5q15 0 31.5 3.5t30 11t22.5 20t9 31.5q0 16 -11 27.5t-31.5 20.5t-50.5 16.5t-68 15.5q-31 7 -60.5 16.5t-52.5 25
t-37 39t-14 57.5q0 49 19.5 81.5t51.5 51t72 26t82 7.5t81.5 -8t70.5 -27t51.5 -50.5t24.5 -79.5h-135q-3 41 -31 55.5t-66 14.5q-12 0 -26 -1.5t-25.5 -6.5t-19.5 -14.5t-8 -25.5q0 -19 14 -31t36.5 -19.5t51.5 -13.5t59 -13q31 -7 60.5 -17t52.5 -26.5t37 -41t14 -60.5
q0 -51 -20.5 -85.5t-53.5 -55.5t-75.5 -30t-86.5 -9q-45 0 -88 9t-76.5 30.5t-55 56.5t-23.5 86h135z" />
    <glyph glyph-name="uni021A" unicode="&#x21a;" horiz-adv-x="611" 
d="M232 -50h145v-73q0 -29 -11 -49.5t-28.5 -29.5t-41.5 -12t-54 -3v37q24 2 38 10t19 27h-67v93zM227 582h-214v132h585v-132h-214v-582h-157v582z" />
    <glyph glyph-name="uni021B" unicode="&#x21b;" horiz-adv-x="352" 
d="M140 -50h145v-73q0 -29 -11 -49.5t-28.5 -29.5t-41.5 -12t-54 -3v37q24 2 38 10t19 27h-67v93zM234 517h104v-95h-104v-256q0 -36 12 -48t48 -12q24 0 44 4v-111q-18 -3 -40 -4t-43 -1q-33 0 -62.5 4.5t-52 18t-35.5 37.5t-13 63v305h-86v95h86v155h142v-155z" />
    <glyph glyph-name="uni0237" unicode="&#x237;" horiz-adv-x="278" 
d="M-19 -61q12 -4 31 -4q22 0 38.5 8.5t16.5 37.5v536h142v-543q0 -40 -8.5 -69t-29 -48.5t-55.5 -29t-89 -9.5q-11 0 -23 1t-23 3v117z" />
    <glyph glyph-name="circumflex" unicode="&#x2c6;" horiz-adv-x="259" 
d="M65 731h130l110 -142h-117l-62 81l-64 -81h-108z" />
    <glyph glyph-name="caron" unicode="&#x2c7;" horiz-adv-x="259" 
d="M195 589h-130l-111 142h112l64 -81l65 81h110z" />
    <glyph glyph-name="uni02C9" unicode="&#x2c9;" horiz-adv-x="259" 
d="M-57 694h373v-75h-373v75z" />
    <glyph glyph-name="breve" unicode="&#x2d8;" horiz-adv-x="259" 
d="M26 733q3 -20 13 -34t24.5 -22t30.5 -11.5t31 -3.5q45 0 73 16.5t37 54.5h63q-10 -77 -57 -111.5t-121 -34.5q-72 0 -112.5 37t-46.5 109h65z" />
    <glyph glyph-name="dotaccent" unicode="&#x2d9;" horiz-adv-x="259" 
d="M62 715h135v-117h-135v117z" />
    <glyph glyph-name="ring" unicode="&#x2da;" horiz-adv-x="259" 
d="M7 684q0 25 9.5 47.5t26 39t39 26t47.5 9.5t47.5 -9.5t39.5 -26t26.5 -39t9.5 -47.5t-9.5 -47.5t-26.5 -39t-39.5 -25.5t-47.5 -9t-47.5 9t-39 25.5t-26 39t-9.5 47.5zM66 684q0 -29 17 -48.5t46 -19.5t46.5 19.5t17.5 48.5t-17.5 48.5t-46.5 19.5t-46 -19.5t-17 -48.5z
" />
    <glyph glyph-name="ogonek" unicode="&#x2db;" horiz-adv-x="259" 
d="M249 -149q-29 -37 -61 -52.5t-72 -15.5q-9 0 -27 2t-36 11t-31 28t-13 41q0 16 3 26.5t13 26.5t33 36.5t65 45.5h65q-48 -43 -65.5 -69.5t-17.5 -47.5q0 -20 12 -30t27 -10q16 0 28 6t29 24z" />
    <glyph glyph-name="tilde" unicode="&#x2dc;" horiz-adv-x="259" 
d="M313 721q-4 -23 -11 -41.5t-19 -34.5t-31.5 -27t-50.5 -11q-19 0 -34.5 3t-46.5 14q-25 8 -39 12.5t-29 4.5q-19 0 -29.5 -11.5t-15.5 -30.5h-61q4 23 12 44t22.5 38.5t36.5 28.5t46 11q15 0 30 -3.5t42 -14.5q17 -6 33.5 -11.5t31.5 -5.5q18 0 28 7.5t16 27.5h69z" />
    <glyph glyph-name="hungarumlaut" unicode="&#x2dd;" horiz-adv-x="259" 
d="M250 589h-99l91 142h157zM43 589h-99l91 142h157z" />
    <glyph glyph-name="uni0394" unicode="&#x394;" horiz-adv-x="702" 
d="M342 561l-151 -437h313zM10 0l261 712h143l278 -712h-682z" />
    <glyph glyph-name="uni03A9" unicode="&#x3a9;" horiz-adv-x="768" 
d="M712 411q0 -43 -11 -85.5t-33.5 -78t-56 -61.5t-78.5 -36v-32h178v-118h-287v204q36 7 63 25t44.5 44t26.5 58t9 67q0 41 -13 77t-37 63t-58 43t-77 16t-78 -16t-59.5 -43.5t-37.5 -64.5t-13 -78q0 -72 34.5 -123t106.5 -68v-204h-287v118h178v32q-44 12 -77 37.5
t-55.5 60t-34 76t-11.5 85.5q0 71 26.5 129t71.5 98.5t105.5 62.5t129.5 22t129 -21.5t105 -62t71 -98t26 -128.5z" />
    <glyph glyph-name="uni03BC" unicode="&#x3bc;" 
d="M539 0h-135v72h-3q-14 -22 -31.5 -38t-35.5 -26.5t-34.5 -16t-28.5 -5.5q-30 0 -48 7t-27 17v-192h-142v699h142v-292q0 -64 20.5 -95.5t70.5 -31.5q58 0 84 34.5t26 113.5v271h142v-517z" />
    <glyph glyph-name="pi" unicode="&#x3c0;" horiz-adv-x="609" 
d="M585 17q-25 -12 -46.5 -18.5t-49.5 -6.5q-35 0 -57 10t-35 28.5t-17.5 44t-4.5 55.5v241h-176v-371h-129v371h-70v118h583v-118h-80v-205q0 -11 0.5 -22.5t4 -21t11.5 -15.5t23 -6q11 0 21.5 3t21.5 8v-95z" />
    <glyph glyph-name="endash" unicode="&#x2013;" horiz-adv-x="500" 
d="M0 334h500v-122h-500v122z" />
    <glyph glyph-name="emdash" unicode="&#x2014;" horiz-adv-x="1000" 
d="M130 334h740v-122h-740v122z" />
    <glyph glyph-name="quoteleft" unicode="&#x2018;" horiz-adv-x="278" 
d="M210 393h-142v153q-1 33 9.5 62t29.5 51t45.5 36.5t57.5 18.5v-66q-38 -13 -52 -38.5t-14 -62.5h66v-154z" />
    <glyph glyph-name="quoteright" unicode="&#x2019;" horiz-adv-x="278" 
d="M68 714h142v-153q1 -33 -9.5 -62t-29.5 -51t-45.5 -36.5t-57.5 -18.5v66q38 13 52 38.5t14 62.5h-66v154z" />
    <glyph glyph-name="quotesinglbase" unicode="&#x201a;" horiz-adv-x="278" 
d="M68 154h142v-153q1 -33 -9.5 -62t-29.5 -51t-45.5 -36.5t-57.5 -18.5v66q38 13 52 38.5t14 62.5h-66v154z" />
    <glyph glyph-name="quotedblleft" unicode="&#x201c;" horiz-adv-x="463" 
d="M196 393h-142v153q-1 33 9.5 62t29.5 51t45.5 36.5t57.5 18.5v-66q-38 -13 -52 -38.5t-14 -62.5h66v-154zM409 393h-142v153q-1 33 9.5 62t29.5 51t45.5 36.5t57.5 18.5v-66q-38 -13 -52 -38.5t-14 -62.5h66v-154z" />
    <glyph glyph-name="quotedblright" unicode="&#x201d;" horiz-adv-x="463" 
d="M54 714h142v-153q1 -33 -9.5 -62t-29.5 -51t-45.5 -36.5t-57.5 -18.5v66q38 13 52 38.5t14 62.5h-66v154zM267 714h142v-153q1 -33 -9.5 -62t-29.5 -51t-45.5 -36.5t-57.5 -18.5v66q38 13 52 38.5t14 62.5h-66v154z" />
    <glyph glyph-name="quotedblbase" unicode="&#x201e;" horiz-adv-x="463" 
d="M54 154h142v-153q1 -33 -9.5 -62t-29.5 -51t-45.5 -36.5t-57.5 -18.5v66q38 13 52 38.5t14 62.5h-66v154zM267 154h142v-153q1 -33 -9.5 -62t-29.5 -51t-45.5 -36.5t-57.5 -18.5v66q38 13 52 38.5t14 62.5h-66v154z" />
    <glyph glyph-name="dagger" unicode="&#x2020;" horiz-adv-x="556" 
d="M210 400h-186v117h186v197h135v-197h187v-117h-187v-566h-135v566z" />
    <glyph glyph-name="daggerdbl" unicode="&#x2021;" horiz-adv-x="556" 
d="M210 27h-186v117h186v256h-186v117h186v197h135v-197h187v-117h-187v-256h187v-117h-187v-193h-135v193z" />
    <glyph glyph-name="bullet" unicode="&#x2022;" horiz-adv-x="501" 
d="M72 357q0 37 14 69.5t38 56.5t56.5 38t69.5 14t69.5 -14t57 -38t38.5 -56.5t14 -69.5t-14 -69.5t-38.5 -57t-57 -38.5t-69.5 -14t-69.5 14t-56.5 38.5t-38 57t-14 69.5z" />
    <glyph glyph-name="ellipsis" unicode="&#x2026;" horiz-adv-x="1000" 
d="M754 154h157v-154h-157v154zM421 154h157v-154h-157v154zM88 154h157v-154h-157v154z" />
    <glyph glyph-name="perthousand" unicode="&#x2030;" horiz-adv-x="1147" 
d="M440 155q0 35 8.5 67t26 56t45.5 38t67 14q41 0 68.5 -13.5t44.5 -37t24.5 -55.5t7.5 -68t-8.5 -67.5t-26 -54t-45 -35.5t-66.5 -13q-70 0 -108 47t-38 122zM564 722h85l-412 -744h-87zM159 556q0 -21 1.5 -43t7 -39t16.5 -28t31 -11q21 0 32.5 10t17 25.5t6 34.5t0.5 37
q0 19 -1 38.5t-6 34.5t-16 24.5t-31 9.5q-21 0 -32.5 -9t-17.5 -23t-7 -30.5t-1 -30.5zM69 539q0 35 8.5 67t26 56t45.5 38t67 14q41 0 68.5 -13.5t44.5 -37t24.5 -55.5t7.5 -68t-8.5 -67.5t-26 -54t-45 -35.5t-66.5 -13q-70 0 -108 47t-38 122zM876 172q0 -21 1.5 -43
t7 -39t16.5 -28t31 -11q21 0 32.5 10t17 25.5t6 34.5t0.5 37q0 19 -1 38.5t-6 34.5t-16 24.5t-31 9.5q-21 0 -32.5 -9t-17.5 -23t-7 -30.5t-1 -30.5zM786 155q0 35 8.5 67t26 56t45.5 38t67 14q41 0 68.5 -13.5t44.5 -37t24.5 -55.5t7.5 -68t-8.5 -67.5t-26 -54t-45 -35.5
t-66.5 -13q-70 0 -108 47t-38 122zM530 172q0 -21 1.5 -43t7 -39t16.5 -28t31 -11q21 0 32.5 10t17 25.5t6 34.5t0.5 37q0 19 -1 38.5t-6 34.5t-16 24.5t-31 9.5q-21 0 -32.5 -9t-17.5 -23t-7 -30.5t-1 -30.5z" />
    <glyph glyph-name="guilsinglleft" unicode="&#x2039;" horiz-adv-x="241" 
d="M42 205v135l157 123v-120l-90 -71l90 -72v-120z" />
    <glyph glyph-name="guilsinglright" unicode="&#x203a;" horiz-adv-x="241" 
d="M199 340v-135l-157 -125v120l90 72l-90 71v120z" />
    <glyph glyph-name="fraction" unicode="&#x2044;" horiz-adv-x="167" 
d="M248 722h85l-412 -744h-87z" />
    <glyph glyph-name="Euro" unicode="&#x20ac;" horiz-adv-x="556" 
d="M515 547q-71 45 -131 45q-105 0 -140 -137h244l-31 -72h-224l-1 -42h213l-31 -72h-174q32 -158 148 -158q74 0 154 63l-1 -151q-68 -40 -154 -40q-127 0 -203 82q-70 74 -91 204h-77l31 72h40v26q0 11 1 16h-73l31 72h51q24 121 99 191q79 76 198 76q85 0 182 -50z" />
    <glyph glyph-name="uni2113" unicode="&#x2113;" horiz-adv-x="500" 
d="M456 53q-80 -67 -172 -67q-79 0 -121.5 41.5t-42.5 105.5v41l-55 -48h-2l-49 75l105 86v238q0 42 13.5 78t37.5 62t57 41t72 15q69 0 110 -41t41 -109q0 -77 -47.5 -150.5t-144.5 -155.5v-110q0 -38 19 -53t42 -15q38 0 88 38h2zM337 563q0 28 -11 47t-28 19t-28.5 -21.5
t-11.5 -56.5v-169q42 45 60.5 90.5t18.5 90.5z" />
    <glyph glyph-name="trademark" unicode="&#x2122;" horiz-adv-x="1000" 
d="M398 634h-117v-332h-102v332h-117v80h336v-80zM928 302h-96v292h-2l-106 -292h-69l-106 292h-2v-292h-96v412h136l103 -271l103 271h135v-412z" />
    <glyph glyph-name="Omega" unicode="&#x2126;" horiz-adv-x="768" 
d="M712 411q0 -43 -11 -85.5t-33.5 -78t-56 -61.5t-78.5 -36v-32h178v-118h-287v204q36 7 63 25t44.5 44t26.5 58t9 67q0 41 -13 77t-37 63t-58 43t-77 16t-78 -16t-59.5 -43.5t-37.5 -64.5t-13 -78q0 -72 34.5 -123t106.5 -68v-204h-287v118h178v32q-44 12 -77 37.5
t-55.5 60t-34 76t-11.5 85.5q0 71 26.5 129t71.5 98.5t105.5 62.5t129.5 22t129 -21.5t105 -62t71 -98t26 -128.5z" />
    <glyph glyph-name="estimated" unicode="&#x212e;" horiz-adv-x="600" 
d="M157 259v-181q59 -59 145 -59q63 0 109 28.5t84 91.5l35 -21q-23 -36 -46.5 -61.5t-51 -42t-59.5 -24t-71 -7.5q-59 0 -106.5 21.5t-81.5 59t-52 87.5t-18 108t18 108.5t52 87.5t81.5 58.5t106.5 21.5q58 0 105.5 -20.5t81.5 -57t53 -87t19 -111.5h-404zM448 295v145
q-63 60 -147 60t-144 -60v-145h291z" />
    <glyph glyph-name="partialdiff" unicode="&#x2202;" horiz-adv-x="572" 
d="M529 359q0 -65 -10.5 -131t-39 -119.5t-79 -87.5t-129.5 -34q-51 0 -93 17t-72.5 48t-47 73.5t-16.5 93.5q0 48 16 89t45.5 71t70 47t88.5 17q38 0 70.5 -12.5t63.5 -35.5v15q0 33 -6 69.5t-22 68t-42.5 52t-66.5 20.5q-37 0 -65.5 -15t-55.5 -38l-70 80q42 35 85 54.5
t100 19.5q78 0 131 -31.5t85 -82.5t46 -116t14 -132zM395 291q-22 24 -50.5 39.5t-61.5 15.5q-29 0 -50 -11t-35.5 -29.5t-21.5 -43t-7 -50.5q0 -24 6 -47t19 -41t32.5 -29t46.5 -11q34 0 57.5 18.5t38 46t21 59.5t5.5 60v23z" />
    <glyph glyph-name="Delta" unicode="&#x2206;" horiz-adv-x="702" 
d="M342 561l-151 -437h313zM10 0l261 712h143l278 -712h-682z" />
    <glyph glyph-name="product" unicode="&#x220f;" horiz-adv-x="749" 
d="M561 -214v874h-373v-874h-133v1000h638v-1000h-132z" />
    <glyph glyph-name="summation" unicode="&#x2211;" horiz-adv-x="673" 
d="M27 -214v110l295 396l-283 384v110h595v-126h-418l263 -367l-281 -381h448v-126h-619z" />
    <glyph glyph-name="minus" unicode="&#x2212;" horiz-adv-x="600" 
d="M48 306h505v-107h-505v107z" />
    <glyph glyph-name="uni2215" unicode="&#x2215;" horiz-adv-x="167" 
d="M248 722h85l-412 -744h-87z" />
    <glyph glyph-name="uni2219" unicode="&#x2219;" horiz-adv-x="278" 
d="M55 287q0 18 7 33.5t18.5 27t27 18t32.5 6.5q34 0 59 -25t25 -60q0 -16 -7 -31t-18 -27t-26.5 -19t-31.5 -7q-18 0 -33.5 6.5t-27 18t-18.5 27t-7 32.5z" />
    <glyph glyph-name="radical" unicode="&#x221a;" horiz-adv-x="570" 
d="M362 -214h-122l-147 303l-53 -26l-49 105l171 78l117 -255l162 795h139z" />
    <glyph glyph-name="infinity" unicode="&#x221e;" horiz-adv-x="848" 
d="M803 269q0 -42 -12.5 -78.5t-36 -63.5t-58 -42.5t-77.5 -15.5q-32 0 -59 9.5t-51 25.5t-45 37t-40 44q-20 -23 -40 -44t-43 -36.5t-49.5 -24.5t-59.5 -9q-44 0 -78.5 15t-58.5 41t-37 62.5t-13 78.5t12.5 77.5t36 61.5t57.5 41t77 15q34 0 61.5 -10t51 -26.5t43.5 -38.5
t40 -47q19 25 39.5 47t44 38.5t51 26.5t61.5 10q43 0 77 -15t57.5 -41t36 -61.5t12.5 -76.5zM694 266q0 35 -20.5 59t-57.5 24q-19 0 -36.5 -8t-33.5 -21t-30 -28t-25 -28q12 -14 26 -28.5t30 -26t34 -18.5t38 -7q36 0 55.5 24t19.5 58zM356 264q-11 13 -25.5 28t-31 27.5
t-34.5 20.5t-36 8q-35 0 -55 -24.5t-20 -57.5q0 -35 20.5 -58t56.5 -23q19 0 37 7t33.5 18.5t29.5 25.5t25 28z" />
    <glyph glyph-name="integral" unicode="&#x222b;" horiz-adv-x="628" 
d="M519 702q0 -27 -16.5 -45.5t-44.5 -18.5q-25 0 -36 13.5t-17 30t-10.5 30t-15.5 13.5q-7 0 -10.5 -4t-5.5 -10t-2.5 -12.5t-0.5 -10.5q0 -41 3 -80.5t3 -80.5v-413v-69q0 -36 -3.5 -72.5t-12.5 -70t-27.5 -59t-48.5 -41t-75 -15.5q-19 0 -40.5 5.5t-39.5 16.5t-30 27.5
t-12 39.5q0 26 19 41.5t44 15.5t35.5 -13.5t15.5 -30t9 -30t15 -13.5q14 0 16.5 12.5t2.5 22.5q0 36 -3 72t-3 72v465q0 49 2.5 101t18.5 95t51.5 70.5t100.5 27.5q18 0 38.5 -5t38 -15t29.5 -25.5t12 -36.5z" />
    <glyph glyph-name="approxequal" unicode="&#x2248;" 
d="M572 474q-5 -55 -25 -100.5t-71 -72.5q-31 -17 -64 -17q-28 0 -60 10t-65 21.5t-64 21.5t-58 10q-26 0 -40.5 -19t-17.5 -42h-85q3 38 13.5 71.5t30 59t49.5 40t72 14.5q30 0 60.5 -9t60.5 -19.5t60 -19t60 -8.5q27 0 41 17t17 42h86zM571 248q-3 -35 -12.5 -69
t-28 -61.5t-47 -44.5t-68.5 -17q-29 0 -62 10t-67 22t-65.5 22t-56.5 10q-26 0 -40 -19t-18 -42h-85q2 33 12 67t29 61.5t47.5 44.5t67.5 17q29 0 60.5 -9.5t64 -21t64.5 -21t62 -9.5q26 0 39.5 18.5t17.5 41.5h86z" />
    <glyph glyph-name="notequal" unicode="&#x2260;" 
d="M277 85l-78 -157l-114 57l51 100h-106v130h170l52 103h-222v129h286l79 157l113 -57l-50 -100h105v-129h-169l-52 -103h221v-130h-286z" />
    <glyph glyph-name="lessequal" unicode="&#x2264;" 
d="M30 282v129l533 165v-135l-354 -94l354 -98v-135zM30 -43v129h533v-129h-533z" />
    <glyph glyph-name="greaterequal" unicode="&#x2265;" 
d="M30 114v135l354 98l-354 94v135l533 -165v-129zM30 -43v129h533v-129h-533z" />
    <glyph glyph-name="lozenge" unicode="&#x25ca;" 
d="M355 -35h-119l-184 391l185 391h118l186 -391zM296 617l-112 -261l112 -262l112 262z" />
    <glyph glyph-name="uniFB01" unicode="&#xfb01;" horiz-adv-x="611" 
d="M85 422h-85v95h85v40q0 34 10.5 63t32.5 50t54 32.5t76 11.5q19 0 38 -1.5t37 -2.5v-106q-26 3 -52 3q-29 0 -41.5 -13.5t-12.5 -45.5v-31h98v-95h-98v-422h-142v422zM411 517h142v-517h-142v517zM553 597h-142v117h142v-117z" />
    <glyph glyph-name="uniFB02" unicode="&#xfb02;" horiz-adv-x="611" 
d="M85 422h-85v95h85v40q0 34 10.5 63t32.5 50t54 32.5t76 11.5q19 0 38 -1.5t37 -2.5v-106q-26 3 -52 3q-29 0 -41.5 -13.5t-12.5 -45.5v-31h98v-95h-98v-422h-142v422zM411 714h142v-714h-142v714z" />
  </font>
</defs>
</svg>
